  0
SECTION
  2
HEADER
  9
$ACADVER
  1
AC1015
  9
$ACADMAINTVER
 70
     6
  9
$DWGCODEPAGE
  3
ANSI_1252
  9
$INSBASE
 10
0.0
 20
0.0
 30
0.0
  9
$EXTMIN
 10
0.0
 20
0.0
 30
0.0
  9
$EXTMAX
 10
420.0
 20
297.0
 30
0.0
  9
$LIMMIN
 10
0.0
 20
0.0
  9
$LIMMAX
 10
420.0
 20
297.0
  9
$ORTHOMODE
 70
     0
  9
$REGENMODE
 70
     1
  9
$FILLMODE
 70
     1
  9
$QTEXTMODE
 70
     0
  9
$MIRRTEXT
 70
     1
  9
$LTSCALE
 40
1.0
  9
$ATTMODE
 70
     1
  9
$TEXTSIZE
 40
3.5
  9
$TRACEWID
 40
1.0
  9
$TEXTSTYLE
  7
Standard
  9
$CLAYER
  8
0
  9
$CELTYPE
  6
ByLayer
  9
$CECOLOR
 62
   256
  9
$CELTSCALE
 40
1.0
  9
$DISPSILH
 70
     0
  9
$DIMSCALE
 40
1.0
  9
$DIMASZ
 40
3.81
  9
$DIMEXO
 40
0.0
  9
$DIMDLI
 40
3.75
  9
$DIMRND
 40
0.0
  9
$DIMDLE
 40
0.0
  9
$DIMEXE
 40
1.0
  9
$DIMTP
 40
0.0
  9
$DIMTM
 40
0.0
  9
$DIMTXT
 40
3.2
  9
$DIMCEN
 40
2.5
  9
$DIMTSZ
 40
0.0
  9
$DIMTOL
 70
     0
  9
$DIMLIM
 70
     0
  9
$DIMTIH
 70
     1
  9
$DIMTOH
 70
     1
  9
$DIMSE1
 70
     0
  9
$DIMSE2
 70
     0
  9
$DIMTAD
 70
     1
  9
$DIMZIN
 70
     0
  9
$DIMBLK
  1

  9
$DIMASO
 70
     1
  9
$DIMSHO
 70
     1
  9
$DIMPOST
  1

  9
$DIMAPOST
  1

  9
$DIMALT
 70
     0
  9
$DIMALTD
 70
     3
  9
$DIMALTF
 40
0.0393700787
  9
$DIMLFAC
 40
1.0
  9
$DIMTOFL
 70
     1
  9
$DIMTVP
 40
0.0
  9
$DIMTIX
 70
     0
  9
$DIMSOXD
 70
     0
  9
$DIMSAH
 70
     0
  9
$DIMBLK1
  1

  9
$DIMBLK2
  1

  9
$DIMSTYLE
  2
ISO-25
  9
$DIMCLRD
 70
     0
  9
$DIMCLRE
 70
     0
  9
$DIMCLRT
 70
     0
  9
$DIMTFAC
 40
1.0
  9
$DIMGAP
 40
1.524
  9
$DIMJUST
 70
     0
  9
$DIMSD1
 70
     0
  9
$DIMSD2
 70
     0
  9
$DIMTOLJ
 70
     0
  9
$DIMTZIN
 70
     0
  9
$DIMALTZ
 70
     0
  9
$DIMALTTZ
 70
     0
  9
$DIMUPT
 70
     0
  9
$DIMDEC
 70
     2
  9
$DIMTDEC
 70
     2
  9
$DIMALTU
 70
     2
  9
$DIMALTTD
 70
     3
  9
$DIMTXSTY
  7
Standard
  9
$DIMAUNIT
 70
     0
  9
$DIMADEC
 70
     0
  9
$DIMALTRND
 40
0.0
  9
$DIMAZIN
 70
     0
  9
$DIMDSEP
 70
    44
  9
$DIMATFIT
 70
     3
  9
$DIMFRAC
 70
     0
  9
$DIMLDRBLK
  1

  9
$DIMLUNIT
 70
     2
  9
$DIMLWD
 70
    -2
  9
$DIMLWE
 70
    -2
  9
$DIMTMOVE
 70
     0
  9
$LUNITS
 70
     2
  9
$LUPREC
 70
     5
  9
$SKETCHINC
 40
1.0
  9
$FILLETRAD
 40
10.0
  9
$AUNITS
 70
     0
  9
$AUPREC
 70
     0
  9
$MENU
  1
.
  9
$ELEVATION
 40
0.0
  9
$PELEVATION
 40
0.0
  9
$THICKNESS
 40
0.0
  9
$LIMCHECK
 70
     0
  9
$CHAMFERA
 40
10.0
  9
$CHAMFERB
 40
10.0
  9
$CHAMFERC
 40
20.0
  9
$CHAMFERD
 40
0.0
  9
$SKPOLY
 70
     0
  9
$TDCREATE
 40
2454700.587400845
  9
$TDUCREATE
 40
2454700.504067512
  9
$TDUPDATE
 40
2454700.587400856
  9
$TDUUPDATE
 40
2454700.504067523
  9
$TDINDWG
 40
0.0000000116
  9
$TDUSRTIMER
 40
0.0000000116
  9
$USRTIMER
 70
     1
  9
$ANGBASE
 50
0.0
  9
$ANGDIR
 70
     0
  9
$PDMODE
 70
     0
  9
$PDSIZE
 40
-1.0
  9
$PLINEWID
 40
0.0
  9
$SPLFRAME
 70
     0
  9
$SPLINETYPE
 70
     6
  9
$SPLINESEGS
 70
     8
  9
$HANDSEED
  5
2C8
  9
$SURFTAB1
 70
     6
  9
$SURFTAB2
 70
     6
  9
$SURFTYPE
 70
     6
  9
$SURFU
 70
     6
  9
$SURFV
 70
     6
  9
$UCSBASE
  2

  9
$UCSNAME
  2

  9
$UCSORG
 10
0.0
 20
0.0
 30
0.0
  9
$UCSXDIR
 10
1.0
 20
0.0
 30
0.0
  9
$UCSYDIR
 10
0.0
 20
1.0
 30
0.0
  9
$UCSORTHOREF
  2

  9
$UCSORTHOVIEW
 70
     0
  9
$UCSORGTOP
 10
0.0
 20
0.0
 30
0.0
  9
$UCSORGBOTTOM
 10
0.0
 20
0.0
 30
0.0
  9
$UCSORGLEFT
 10
0.0
 20
0.0
 30
0.0
  9
$UCSORGRIGHT
 10
0.0
 20
0.0
 30
0.0
  9
$UCSORGFRONT
 10
0.0
 20
0.0
 30
0.0
  9
$UCSORGBACK
 10
0.0
 20
0.0
 30
0.0
  9
$PUCSBASE
  2

  9
$PUCSNAME
  2

  9
$PUCSORG
 10
0.0
 20
0.0
 30
0.0
  9
$PUCSXDIR
 10
1.0
 20
0.0
 30
0.0
  9
$PUCSYDIR
 10
0.0
 20
1.0
 30
0.0
  9
$PUCSORTHOREF
  2

  9
$PUCSORTHOVIEW
 70
     0
  9
$PUCSORGTOP
 10
0.0
 20
0.0
 30
0.0
  9
$PUCSORGBOTTOM
 10
0.0
 20
0.0
 30
0.0
  9
$PUCSORGLEFT
 10
0.0
 20
0.0
 30
0.0
  9
$PUCSORGRIGHT
 10
0.0
 20
0.0
 30
0.0
  9
$PUCSORGFRONT
 10
0.0
 20
0.0
 30
0.0
  9
$PUCSORGBACK
 10
0.0
 20
0.0
 30
0.0
  9
$USERI1
 70
     0
  9
$USERI2
 70
     0
  9
$USERI3
 70
     0
  9
$USERI4
 70
     0
  9
$USERI5
 70
     0
  9
$USERR1
 40
0.0
  9
$USERR2
 40
0.0
  9
$USERR3
 40
0.0
  9
$USERR4
 40
0.0
  9
$USERR5
 40
0.0
  9
$WORLDVIEW
 70
     1
  9
$SHADEDGE
 70
     3
  9
$SHADEDIF
 70
    70
  9
$TILEMODE
 70
     1
  9
$MAXACTVP
 70
    64
  9
$PINSBASE
 10
0.0
 20
0.0
 30
0.0
  9
$PLIMCHECK
 70
     0
  9
$PEXTMIN
 10
1.0000000000E+20
 20
1.0000000000E+20
 30
1.0000000000E+20
  9
$PEXTMAX
 10
-1.0000000000E+20
 20
-1.0000000000E+20
 30
-1.0000000000E+20
  9
$PLIMMIN
 10
0.0
 20
0.0
  9
$PLIMMAX
 10
420.0
 20
297.0
  9
$UNITMODE
 70
     0
  9
$VISRETAIN
 70
     1
  9
$PLINEGEN
 70
     0
  9
$PSLTSCALE
 70
     1
  9
$TREEDEPTH
 70
  3020
  9
$CMLSTYLE
  2
Standard
  9
$CMLJUST
 70
     0
  9
$CMLSCALE
 40
20.0
  9
$PROXYGRAPHICS
 70
     1
  9
$MEASUREMENT
 70
     1
  9
$CELWEIGHT
370
    -1
  9
$ENDCAPS
280
     0
  9
$JOINSTYLE
280
     0
  9
$LWDISPLAY
290
     1
  9
$INSUNITS
 70
     4
  9
$HYPERLINKBASE
  1

  9
$STYLESHEET
  1

  9
$XEDIT
290
     1
  9
$CEPSNTYPE
380
     0
  9
$PSTYLEMODE
290
     1
  9
$FINGERPRINTGUID
  2
{E304DA0E-0E64-4546-8BE5-3691F28ACAB2}
  9
$VERSIONGUID
  2
{FAEB1C32-E019-11D5-929B-00C0DF256EC4}
  9
$EXTNAMES
290
     1
  9
$PSVPSCALE
 40
0.0
  9
$OLESTARTUP
290
     0
  0
ENDSEC
  0
SECTION
  2
CLASSES
  0
CLASS
  1
ACDBDICTIONARYWDFLT
  2
AcDbDictionaryWithDefault
  3
ObjectDBX Classes
 90
        0
280
     0
281
     0
  0
CLASS
  1
VISUALSTYLE
  2
AcDbVisualStyle
  3
ObjectDBX Classes
 90
     4095
280
     0
281
     0
  0
CLASS
  1
SCALE
  2
AcDbScale
  3
ObjectDBX Classes
 90
     1153
280
     0
281
     0
  0
CLASS
  1
DICTIONARYVAR
  2
AcDbDictionaryVar
  3
ObjectDBX Classes
 90
        0
280
     0
281
     0
  0
CLASS
  1
ACDBPLACEHOLDER
  2
AcDbPlaceHolder
  3
ObjectDBX Classes
 90
        0
280
     0
281
     0
  0
CLASS
  1
LAYOUT
  2
AcDbLayout
  3
ObjectDBX Classes
 90
        0
280
     0
281
     0
  0
ENDSEC
  0
SECTION
  2
TABLES
  0
TABLE
  2
VPORT
  5
8
330
0
100
AcDbSymbolTable
 70
     1
  0
VPORT
  5
29
330
8
100
AcDbSymbolTableRecord
100
AcDbViewportTableRecord
  2
*Active
 70
     0
 10
0.0
 20
0.0
 11
1.0
 21
1.0
 12
210.0
 22
148.5
 13
0.0
 23
0.0
 14
10.0
 24
10.0
 15
10.0
 25
10.0
 16
0.0
 26
0.0
 36
1.0
 17
0.0
 27
0.0
 37
0.0
 40
297.0
 41
1.4141414141
 42
50.0
 43
0.0
 44
0.0
 50
0.0
 51
0.0
 71
     0
 72
  2000
 73
     1
 74
     3
 75
     0
 76
     0
 77
     0
 78
     0
281
     0
 65
     1
110
0.0
120
0.0
130
0.0
111
1.0
121
0.0
131
0.0
112
0.0
122
1.0
132
0.0
 79
     0
146
0.0
  0
ENDTAB
  0
TABLE
  2
LTYPE
  5
5
330
0
100
AcDbSymbolTable
 70
     6
  0
LTYPE
  5
14
330
5
100
AcDbSymbolTableRecord
100
AcDbLinetypeTableRecord
  2
ByBlock
 70
     0
  3

 72
    65
 73
     0
 40
0.0
  0
LTYPE
  5
15
330
5
100
AcDbSymbolTableRecord
100
AcDbLinetypeTableRecord
  2
ByLayer
 70
     0
  3

 72
    65
 73
     0
 40
0.0
  0
LTYPE
  5
16
330
5
100
AcDbSymbolTableRecord
100
AcDbLinetypeTableRecord
  2
Continuous
 70
     0
  3
Solid line
 72
    65
 73
     0
 40
0.0
  0
LTYPE
  5
5D
330
5
100
AcDbSymbolTableRecord
100
AcDbLinetypeTableRecord
  2
HIDDEN
 70
     0
  3
Hidden __ __ __ __ __ __ __ __ __ __ __ __ __ __
 72
    65
 73
     2
 40
1.905
 49
1.27
 74
     0
 49
-0.635
 74
     0
  0
LTYPE
  5
5E
330
5
100
AcDbSymbolTableRecord
100
AcDbLinetypeTableRecord
  2
PHANTOM
 70
     0
  3
Phantom ______  __  __  ______  __  __  ______
 72
    65
 73
     6
 40
12.7
 49
6.35
 74
     0
 49
-1.27
 74
     0
 49
1.27
 74
     0
 49
-1.27
 74
     0
 49
1.27
 74
     0
 49
-1.27
 74
     0
  0
LTYPE
  5
5F
330
5
100
AcDbSymbolTableRecord
100
AcDbLinetypeTableRecord
  2
CENTER
 70
     0
  3
Center ____ _ ____ _ ____ _ ____ _ ____ _ ____
 72
    65
 73
     4
 40
10.16
 49
6.35
 74
     0
 49
-1.27
 74
     0
 49
1.27
 74
     0
 49
-1.27
 74
     0
  0
LTYPE
  5
60
330
5
100
AcDbSymbolTableRecord
100
AcDbLinetypeTableRecord
  2
CENTERX2
 70
     0
  3
Center (2x) ________  __  ________  __  _____
 72
    65
 73
     4
 40
20.32
 49
12.7
 74
     0
 49
-2.54
 74
     0
 49
2.54
 74
     0
 49
-2.54
 74
     0
  0
LTYPE
  5
61
330
5
100
AcDbSymbolTableRecord
100
AcDbLinetypeTableRecord
  2
DOT2
 70
     0
  3
Dot (.5x) ........................................
 72
    65
 73
     2
 40
0.635
 49
0.0
 74
     0
 49
-0.635
 74
     0
  0
ENDTAB
  0
TABLE
  2
LAYER
  5
2
330
0
100
AcDbSymbolTable
 70
     9
  0
LAYER
  5
10
330
2
100
AcDbSymbolTableRecord
100
AcDbLayerTableRecord
  2
0
 70
     0
 62
     7
  6
Continuous
370
    -3
390
F
  0
LAYER
  5
62
330
2
100
AcDbSymbolTableRecord
100
AcDbLayerTableRecord
  2
SLD-0
 70
     0
 62
     7
  6
Continuous
370
    -3
390
F
  0
LAYER
  5
63
330
2
100
AcDbSymbolTableRecord
100
AcDbLayerTableRecord
  2
PV
 70
     0
 62
     7
  6
Continuous
370
    -3
390
F
  0
LAYER
  5
64
330
2
100
AcDbSymbolTableRecord
100
AcDbLayerTableRecord
  2
COTATION
 70
     0
 62
     1
  6
Continuous
370
    -3
390
F
  0
LAYER
  5
65
330
2
100
AcDbSymbolTableRecord
100
AcDbLayerTableRecord
  2
NOTES
 70
     0
 62
     5
  6
Continuous
370
    -3
390
F
  0
LAYER
  5
66
330
2
100
AcDbSymbolTableRecord
100
AcDbLayerTableRecord
  2
COTATION2
 70
     0
 62
    96
  6
Continuous
370
    -3
390
F
  0
LAYER
  5
67
330
2
100
AcDbSymbolTableRecord
100
AcDbLayerTableRecord
  2
COTATION3
 70
     0
 62
    30
  6
Continuous
370
    -3
390
F
  0
LAYER
  5
68
330
2
100
AcDbSymbolTableRecord
100
AcDbLayerTableRecord
  2
LOGO1
 70
     0
 62
   156
  6
Continuous
370
    -3
390
F
  0
LAYER
  5
69
330
2
100
AcDbSymbolTableRecord
100
AcDbLayerTableRecord
  2
LOGO2
 70
     0
 62
   161
  6
Continuous
370
    -3
390
F
  0
ENDTAB
  0
TABLE
  2
STYLE
  5
3
330
0
100
AcDbSymbolTable
 70
     6
  0
STYLE
  5
11
330
3
100
AcDbSymbolTableRecord
100
AcDbTextStyleTableRecord
  2
Standard
 70
     0
 40
0.0
 41
1.0
 50
0.0
 71
     0
 42
2.5
  3
txt
  4

  0
STYLE
  5
11A
330
3
100
AcDbSymbolTableRecord
100
AcDbTextStyleTableRecord
  2
SLDTEXTSTYLE0
 70
     0
 40
0.0
 41
0.75
 50
0.0
 71
     0
 42
0.2
  3
TXT
  4

  0
STYLE
  5
133
330
3
100
AcDbSymbolTableRecord
100
AcDbTextStyleTableRecord
  2
SLDTEXTSTYLE1
 70
     0
 40
0.0
 41
0.6818181818
 50
0.0
 71
     0
 42
0.2
  3
TXT
  4

  0
STYLE
  5
164
330
3
100
AcDbSymbolTableRecord
100
AcDbTextStyleTableRecord
  2
SLDTEXTSTYLE2
 70
     0
 40
0.0
 41
0.7
 50
0.0
 71
     0
 42
0.2
  3
TXT
  4

  0
STYLE
  5
16F
330
3
100
AcDbSymbolTableRecord
100
AcDbTextStyleTableRecord
  2
SLDTEXTSTYLE3
 70
     0
 40
0.0
 41
0.675
 50
0.0
 71
     0
 42
0.2
  3
TXT
  4

  0
STYLE
  5
2BF
330
3
100
AcDbSymbolTableRecord
100
AcDbTextStyleTableRecord
  2
SLDTEXTSTYLE4
 70
     0
 40
0.0
 41
0.6923076923
 50
0.0
 71
     0
 42
0.2
  3
TXT
  4

  0
ENDTAB
  0
TABLE
  2
VIEW
  5
6
330
0
100
AcDbSymbolTable
 70
     0
  0
ENDTAB
  0
TABLE
  2
UCS
  5
7
330
0
100
AcDbSymbolTable
 70
     0
  0
ENDTAB
  0
TABLE
  2
APPID
  5
9
330
0
100
AcDbSymbolTable
 70
     1
  0
APPID
  5
12
330
9
100
AcDbSymbolTableRecord
100
AcDbRegAppTableRecord
  2
ACAD
 70
     0
  0
ENDTAB
  0
TABLE
  2
DIMSTYLE
  5
A
330
0
100
AcDbSymbolTable
 70
     4
100
AcDbDimStyleTable
  0
DIMSTYLE
105
27
330
A
100
AcDbSymbolTableRecord
100
AcDbDimStyleTableRecord
  2
ISO-25
 70
     0
 41
2.5
 42
0.625
 43
3.75
 44
1.25
 73
     0
 74
     0
 77
     1
 78
     8
140
2.5
141
2.5
143
0.0393700787
147
0.625
171
     3
172
     1
271
     2
272
     2
274
     3
278
    44
283
     0
284
     8
340
11
  0
DIMSTYLE
105
17D
102
{ACAD_REACTORS
330
17C
102
}
330
A
100
AcDbSymbolTableRecord
100
AcDbDimStyleTableRecord
  2
SLDDIMSTYLE0
 70
     0
 41
3.81
 44
0.0
 45
0.000000001
 73
     0
 77
     1
 78
    12
140
3.2
147
0.8
172
     1
173
     1
271
     5
272
     2
284
    12
340
11A
  0
DIMSTYLE
105
18A
102
{ACAD_REACTORS
330
189
330
194
102
}
330
A
100
AcDbSymbolTableRecord
100
AcDbDimStyleTableRecord
  2
SLDDIMSTYLE1
 70
     0
 41
3.81
 44
0.0
 45
0.000000001
 73
     0
 77
     1
 78
    12
140
3.2
147
0.8
173
     1
271
     5
272
     2
284
    12
340
11A
  0
DIMSTYLE
105
20D
102
{ACAD_REACTORS
330
20C
330
217
330
247
330
251
102
}
330
A
100
AcDbSymbolTableRecord
100
AcDbDimStyleTableRecord
  2
SLDDIMSTYLE2
 70
     0
 41
3.81
 44
0.0
 45
0.000000001
 73
     0
 77
     1
 78
    12
140
3.2
147
0.8
173
     1
271
     2
272
     2
284
    12
340
11A
  0
ENDTAB
  0
TABLE
  2
BLOCK_RECORD
  5
1
330
0
100
AcDbSymbolTable
 70
    14
  0
BLOCK_RECORD
  5
1F
330
1
100
AcDbSymbolTableRecord
100
AcDbBlockTableRecord
  2
*Model_Space
340
22
  0
BLOCK_RECORD
  5
1B
330
1
100
AcDbSymbolTableRecord
100
AcDbBlockTableRecord
  2
*Paper_Space
340
1E
  0
BLOCK_RECORD
  5
23
330
1
100
AcDbSymbolTableRecord
100
AcDbBlockTableRecord
  2
*Paper_Space0
340
26
  0
BLOCK_RECORD
  5
6A
330
1
100
AcDbSymbolTableRecord
100
AcDbBlockTableRecord
  2
Bloc2
340
0
102
{BLKREFS
331
119
102
}
  0
BLOCK_RECORD
  5
166
330
1
100
AcDbSymbolTableRecord
100
AcDbBlockTableRecord
  2
SW_NOTE_0
340
0
102
{BLKREFS
331
16D
102
}
  0
BLOCK_RECORD
  5
173
330
1
100
AcDbSymbolTableRecord
100
AcDbBlockTableRecord
  2
SW_NOTE_1
340
0
102
{BLKREFS
331
179
102
}
  0
BLOCK_RECORD
  5
17E
330
1
100
AcDbSymbolTableRecord
100
AcDbBlockTableRecord
  2
*D4
340
0
  0
BLOCK_RECORD
  5
18B
330
1
100
AcDbSymbolTableRecord
100
AcDbBlockTableRecord
  2
*D5
340
0
  0
BLOCK_RECORD
  5
195
330
1
100
AcDbSymbolTableRecord
100
AcDbBlockTableRecord
  2
*D6
340
0
  0
BLOCK_RECORD
  5
19E
330
1
100
AcDbSymbolTableRecord
100
AcDbBlockTableRecord
  2
SW_CENTERMARKSYMBOL_0
340
0
102
{BLKREFS
331
1A9
102
}
  0
BLOCK_RECORD
  5
1AA
330
1
100
AcDbSymbolTableRecord
100
AcDbBlockTableRecord
  2
SW_CENTERMARKSYMBOL_1
340
0
102
{BLKREFS
331
1B5
102
}
  0
BLOCK_RECORD
  5
20E
330
1
100
AcDbSymbolTableRecord
100
AcDbBlockTableRecord
  2
*D9
340
0
  0
BLOCK_RECORD
  5
218
330
1
100
AcDbSymbolTableRecord
100
AcDbBlockTableRecord
  2
*D10
340
0
  0
BLOCK_RECORD
  5
248
330
1
100
AcDbSymbolTableRecord
100
AcDbBlockTableRecord
  2
*D11
340
0
  0
BLOCK_RECORD
  5
252
330
1
100
AcDbSymbolTableRecord
100
AcDbBlockTableRecord
  2
*D12
340
0
  0
BLOCK_RECORD
  5
2BB
330
1
100
AcDbSymbolTableRecord
100
AcDbBlockTableRecord
  2
SW_NOTE_2
340
0
102
{BLKREFS
331
2C1
102
}
  0
ENDTAB
  0
ENDSEC
  0
SECTION
  2
BLOCKS
  0
BLOCK
  5
20
330
1F
100
AcDbEntity
  8
0
100
AcDbBlockBegin
  2
*Model_Space
 70
     0
 10
0.0
 20
0.0
 30
0.0
  3
*Model_Space
  1

  0
ENDBLK
  5
21
330
1F
100
AcDbEntity
  8
0
100
AcDbBlockEnd
  0
BLOCK
  5
1C
330
1B
100
AcDbEntity
 67
     1
  8
0
100
AcDbBlockBegin
  2
*Paper_Space
 70
     0
 10
0.0
 20
0.0
 30
0.0
  3
*Paper_Space
  1

  0
ENDBLK
  5
1D
330
1B
100
AcDbEntity
 67
     1
  8
0
100
AcDbBlockEnd
  0
BLOCK
  5
24
330
23
100
AcDbEntity
  8
0
100
AcDbBlockBegin
  2
*Paper_Space0
 70
     0
 10
0.0
 20
0.0
 30
0.0
  3
*Paper_Space0
  1

  0
ENDBLK
  5
25
330
23
100
AcDbEntity
  8
0
100
AcDbBlockEnd
  0
BLOCK
  5
6B
330
6A
100
AcDbEntity
  8
0
100
AcDbBlockBegin
  2
Bloc2
 70
     0
 10
0.0
 20
0.0
 30
0.0
  3
Bloc2
  1

  0
CIRCLE
  5
6D
330
6A
100
AcDbEntity
  8
PV
  6
Continuous
100
AcDbCircle
 10
8.0102707617
 20
1.7
 30
0.0
 40
0.6400000000000101
  0
CIRCLE
  5
6E
330
6A
100
AcDbEntity
  8
PV
  6
Continuous
100
AcDbCircle
 10
8.0102707617
 20
1.7
 30
0.0
 40
1.199999999999928
  0
LINE
  5
6F
330
6A
100
AcDbEntity
  8
PV
  6
CENTER
100
AcDbLine
 10
8.0102707617
 20
0.0
 30
0.0
 11
8.0102707617
 21
3.4
 31
0.0
  0
LINE
  5
70
330
6A
100
AcDbEntity
  8
PV
  6
Continuous
100
AcDbLine
 10
4.0102707617
 20
2.9
 30
0.0
 11
4.0102707617
 21
0.5
 31
0.0
  0
LINE
  5
71
330
6A
100
AcDbEntity
  8
PV
  6
Continuous
100
AcDbLine
 10
0.8102707617
 20
1.06
 30
0.0
 11
4.0102707617
 21
0.5
 31
0.0
  0
LINE
  5
72
330
6A
100
AcDbEntity
  8
PV
  6
Continuous
100
AcDbLine
 10
0.8102707617
 20
2.339999
 30
0.0
 11
0.8102707617
 21
1.06
 31
0.0
  0
LINE
  5
73
330
6A
100
AcDbEntity
  8
PV
  6
CENTER
100
AcDbLine
 10
9.7436336225
 20
1.7471354655
 30
0.0
 11
0.0
 21
1.7000647717
 31
0.0
  0
LINE
  5
74
330
6A
100
AcDbEntity
  8
PV
  6
Continuous
100
AcDbLine
 10
0.8102707617
 20
2.339999
 30
0.0
 11
4.0102707617
 21
2.9
 31
0.0
  0
ENDBLK
  5
6C
330
6A
100
AcDbEntity
  8
0
100
AcDbBlockEnd
  0
BLOCK
  5
167
330
166
100
AcDbEntity
  8
0
100
AcDbBlockBegin
  2
SW_NOTE_0
 70
     0
 10
0.0
 20
0.0
 30
0.0
  3
SW_NOTE_0
  1

  0
MTEXT
  5
169
330
166
100
AcDbEntity
  8
PV
 62
     0
100
AcDbMText
 10
-2.5781354795
 20
0.0
 30
0.0
 40
2.0
 41
0.0
 71
     1
 72
     1
  1
PDM Project :
  7
SLDTEXTSTYLE0
 11
-3.491481338843133E-15
 21
1.0
 31
0.0
 73
     1
 44
1.0
  0
MTEXT
  5
16A
330
166
100
AcDbEntity
  8
PV
 62
     0
100
AcDbMText
 10
-2.5781354795
 20
16.8881937861
 30
0.0
 40
2.0
 41
0.0
 71
     1
 72
     1
  1
 E173 Magic Switch 100V -
  7
SLDTEXTSTYLE0
 11
-3.491481338843133E-15
 21
1.0
 31
0.0
 73
     1
 44
1.0
  0
MTEXT
  5
16B
330
166
100
AcDbEntity
  8
PV
 62
     0
100
AcDbMText
 10
-2.5781354795
 20
49.5145842433
 30
0.0
 40
2.0
 41
0.0
 71
     1
 72
     1
  1
  File Name :
  7
SLDTEXTSTYLE0
 11
-3.491481338843133E-15
 21
1.0
 31
0.0
 73
     1
 44
1.0
  0
MTEXT
  5
16C
330
166
100
AcDbEntity
  8
PV
 62
     0
100
AcDbMText
 10
-2.5781354795
 20
64.9454891682
 30
0.0
 40
2.0
 41
0.0
 71
     1
 72
     1
  1
 41.7782 - MS CAsing DIM. 
  7
SLDTEXTSTYLE0
 11
-3.491481338843133E-15
 21
1.0
 31
0.0
 73
     1
 44
1.0
  0
ENDBLK
  5
168
330
166
100
AcDbEntity
  8
0
100
AcDbBlockEnd
  0
BLOCK
  5
174
330
173
100
AcDbEntity
  8
0
100
AcDbBlockBegin
  2
SW_NOTE_1
 70
     0
 10
0.0
 20
0.0
 30
0.0
  3
SW_NOTE_1
  1

  0
MTEXT
  5
176
330
173
100
AcDbEntity
  8
SLD-0
 62
     0
100
AcDbMText
 10
0.0
 20
3.4106583948
 30
0.0
 40
2.6458333333
 41
0.0
 71
     1
 72
     1
  1
A
  7
SLDTEXTSTYLE2
 73
     1
 44
1.0
  0
MTEXT
  5
177
330
173
100
AcDbEntity
  8
SLD-0
 62
     0
100
AcDbMText
 10
2.9447143897
 20
3.4106583948
 30
0.0
 40
2.6458333333
 41
0.0
 71
     1
 72
     1
  1
HALMA
  7
SLDTEXTSTYLE2
 73
     1
 44
1.0
  0
MTEXT
  5
178
330
173
100
AcDbEntity
  8
SLD-0
 62
     0
100
AcDbMText
 10
15.2233410627
 20
3.4106583948
 30
0.0
 40
2.6458333333
 41
0.0
 71
     1
 72
     1
  1
COMPANY
  7
SLDTEXTSTYLE2
 73
     1
 44
1.0
  0
ENDBLK
  5
175
330
173
100
AcDbEntity
  8
0
100
AcDbBlockEnd
  0
BLOCK
  5
17F
330
17E
100
AcDbEntity
  8
0
100
AcDbBlockBegin
  2
*D4
 70
     1
 10
0.0
 20
0.0
 30
0.0
  3
*D4
  1

  0
SOLID
  5
181
330
17E
100
AcDbEntity
  8
COTATION
100
AcDbTrace
 10
356.8250006556
 20
237.8791672236
 30
0.0
 11
354.06963158
 21
235.1864634695
 31
0.0
 12
354.980930098
 22
234.4965475245
 32
0.0
 13
354.980930098
 23
234.4965475245
 33
0.0
  0
SOLID
  5
182
330
17E
100
AcDbEntity
  8
COTATION
100
AcDbTrace
 10
358.2736430598
 20
239.7926549253
 30
0.0
 11
361.0290121355
 21
242.4853586794
 31
0.0
 12
360.1177136175
 22
243.1752746244
 32
0.0
 13
360.1177136175
 23
243.1752746244
 33
0.0
  0
LINE
  5
183
330
17E
100
AcDbEntity
  8
COTATION
100
AcDbLine
 10
358.2736430598
 20
239.7926549253
 30
0.0
 11
383.1038998012
 21
272.5905288305
 31
0.0
  0
LINE
  5
184
330
17E
100
AcDbEntity
  8
COTATION
100
AcDbLine
 10
356.8250006556
 20
237.8791672236
 30
0.0
 11
354.531316849
 21
234.8494783625
 31
0.0
  0
LINE
  5
185
330
17E
100
AcDbEntity
  8
COTATION
100
AcDbLine
 10
358.2736430598
 20
239.7926549253
 30
0.0
 11
356.8250006556
 21
237.8791672236
 31
0.0
  0
MTEXT
  5
186
330
17E
100
AcDbEntity
  8
COTATION
100
AcDbMText
 10
365.3772184675
 20
255.8914308197
 30
0.0
 40
3.2
 41
0.0
 71
     1
 72
     1
  1
%%c
  7
SLDTEXTSTYLE0
 11
0.6036010017447823
 21
0.7972865424003439
 31
0.0
 73
     1
 44
1.0
  0
MTEXT
  5
187
330
17E
100
AcDbEntity
  8
COTATION
100
AcDbMText
 10
368.2878229616
 20
259.7360000715
 30
0.0
 40
3.2
 41
0.0
 71
     1
 72
     1
  1
2,4
  7
SLDTEXTSTYLE0
 11
0.6036010017447823
 21
0.7972865424003439
 31
0.0
 73
     1
 44
1.0
  0
MTEXT
  5
188
330
17E
100
AcDbEntity
  8
COTATION
100
AcDbMText
 10
361.3296140329
 20
258.9557470492
 30
0.0
 40
3.2
 41
0.0
 71
     1
 72
     1
  1
Drill 2 holes
  7
SLDTEXTSTYLE0
 11
0.6036010017447823
 21
0.7972865424003439
 31
0.0
 73
     1
 44
1.0
  0
ENDBLK
  5
180
330
17E
100
AcDbEntity
  8
0
100
AcDbBlockEnd
  0
BLOCK
  5
18C
330
18B
100
AcDbEntity
  8
0
100
AcDbBlockBegin
  2
*D5
 70
     1
 10
0.0
 20
0.0
 30
0.0
  3
*D5
  1

  0
SOLID
  5
18E
330
18B
100
AcDbEntity
  8
COTATION
100
AcDbTrace
 10
292.2493218577
 20
265.7676626236
 30
0.0
 11
296.0593218577
 21
265.1961626236
 31
0.0
 12
296.0593218577
 22
266.3391626236
 32
0.0
 13
296.0593218577
 23
266.3391626236
 33
0.0
  0
SOLID
  5
18F
330
18B
100
AcDbEntity
  8
COTATION
100
AcDbTrace
 10
357.5493218577
 20
265.7676626236
 30
0.0
 11
353.7393218577
 21
266.3391626236
 31
0.0
 12
353.7393218577
 22
265.1961626236
 32
0.0
 13
353.7393218577
 23
265.1961626236
 33
0.0
  0
LINE
  5
190
330
18B
100
AcDbEntity
  8
COTATION
100
AcDbLine
 10
292.2493218577
 20
180.4359110745
 30
0.0
 11
292.2493218577
 21
266.7676626236
 31
0.0
  0
LINE
  5
191
330
18B
100
AcDbEntity
  8
COTATION
100
AcDbLine
 10
357.5493218577
 20
246.3359110745
 30
0.0
 11
357.5493218577
 21
266.7676626236
 31
0.0
  0
LINE
  5
192
330
18B
100
AcDbEntity
  8
COTATION
100
AcDbLine
 10
292.2493218577
 20
265.7676626236
 30
0.0
 11
357.5493218577
 21
265.7676626236
 31
0.0
  0
MTEXT
  5
193
330
18B
100
AcDbEntity
  8
COTATION
100
AcDbMText
 10
320.7631876295
 20
269.8926792163
 30
0.0
 40
3.2
 41
0.0
 71
     1
 72
     1
  1
65,3
  7
SLDTEXTSTYLE0
 73
     1
 44
1.0
  0
ENDBLK
  5
18D
330
18B
100
AcDbEntity
  8
0
100
AcDbBlockEnd
  0
BLOCK
  5
196
330
195
100
AcDbEntity
  8
0
100
AcDbBlockBegin
  2
*D6
 70
     1
 10
0.0
 20
0.0
 30
0.0
  3
*D6
  1

  0
SOLID
  5
198
330
195
100
AcDbEntity
  8
COTATION
100
AcDbTrace
 10
382.0290074849
 20
238.8359110745
 30
0.0
 11
381.4575074849
 21
235.0259110745
 31
0.0
 12
382.6005074849
 22
235.0259110745
 32
0.0
 13
382.6005074849
 23
235.0259110745
 33
0.0
  0
SOLID
  5
199
330
195
100
AcDbEntity
  8
COTATION
100
AcDbTrace
 10
382.0290074849
 20
172.9359110745
 30
0.0
 11
382.6005074849
 21
176.7459110745
 31
0.0
 12
381.4575074849
 22
176.7459110745
 32
0.0
 13
381.4575074849
 23
176.7459110745
 33
0.0
  0
LINE
  5
19A
330
195
100
AcDbEntity
  8
COTATION
100
AcDbLine
 10
365.0493218577
 20
238.8359110745
 30
0.0
 11
383.0290074849
 21
238.8359110745
 31
0.0
  0
LINE
  5
19B
330
195
100
AcDbEntity
  8
COTATION
100
AcDbLine
 10
299.7493218577
 20
172.9359110745
 30
0.0
 11
383.0290074849
 21
172.9359110745
 31
0.0
  0
LINE
  5
19C
330
195
100
AcDbEntity
  8
COTATION
100
AcDbLine
 10
382.0290074849
 20
238.8359110745
 30
0.0
 11
382.0290074849
 21
172.9359110745
 31
0.0
  0
MTEXT
  5
19D
330
195
100
AcDbEntity
  8
COTATION
100
AcDbMText
 10
377.9039908922
 20
201.7497768463
 30
0.0
 40
3.2
 41
0.0
 71
     1
 72
     1
  1
65,9
  7
SLDTEXTSTYLE0
 11
-7.044195017643634E-15
 21
1.0
 31
0.0
 73
     1
 44
1.0
  0
ENDBLK
  5
197
330
195
100
AcDbEntity
  8
0
100
AcDbBlockEnd
  0
BLOCK
  5
19F
330
19E
100
AcDbEntity
  8
0
100
AcDbBlockBegin
  2
SW_CENTERMARKSYMBOL_0
 70
     0
 10
0.0
 20
0.0
 30
0.0
  3
SW_CENTERMARKSYMBOL_0
  1

  0
LINE
  5
1A1
330
19E
100
AcDbEntity
  8
COTATION
 62
     0
100
AcDbLine
 10
0.0
 20
0.0
 30
0.0
 11
0.0
 21
2.5
 31
0.0
  0
LINE
  5
1A2
330
19E
100
AcDbEntity
  8
COTATION
 62
     0
100
AcDbLine
 10
0.0
 20
0.0
 30
0.0
 11
-2.5
 21
0.0
 31
0.0
  0
LINE
  5
1A3
330
19E
100
AcDbEntity
  8
COTATION
 62
     0
100
AcDbLine
 10
0.0
 20
0.0
 30
0.0
 11
0.0
 21
-2.5
 31
0.0
  0
LINE
  5
1A4
330
19E
100
AcDbEntity
  8
COTATION
 62
     0
100
AcDbLine
 10
0.0
 20
0.0
 30
0.0
 11
2.5
 21
0.0
 31
0.0
  0
LINE
  5
1A5
330
19E
100
AcDbEntity
  8
COTATION
 62
     0
100
AcDbLine
 10
0.0
 20
5.0
 30
0.0
 11
0.0
 21
7.5
 31
0.0
  0
LINE
  5
1A6
330
19E
100
AcDbEntity
  8
COTATION
 62
     0
100
AcDbLine
 10
-5.0
 20
0.0
 30
0.0
 11
-7.5
 21
0.0
 31
0.0
  0
LINE
  5
1A7
330
19E
100
AcDbEntity
  8
COTATION
 62
     0
100
AcDbLine
 10
0.0
 20
-5.0
 30
0.0
 11
0.0
 21
-7.5
 31
0.0
  0
LINE
  5
1A8
330
19E
100
AcDbEntity
  8
COTATION
 62
     0
100
AcDbLine
 10
5.0
 20
0.0
 30
0.0
 11
7.5
 21
0.0
 31
0.0
  0
ENDBLK
  5
1A0
330
19E
100
AcDbEntity
  8
0
100
AcDbBlockEnd
  0
BLOCK
  5
1AB
330
1AA
100
AcDbEntity
  8
0
100
AcDbBlockBegin
  2
SW_CENTERMARKSYMBOL_1
 70
     0
 10
0.0
 20
0.0
 30
0.0
  3
SW_CENTERMARKSYMBOL_1
  1

  0
LINE
  5
1AD
330
1AA
100
AcDbEntity
  8
COTATION
 62
     0
100
AcDbLine
 10
0.0
 20
0.0
 30
0.0
 11
0.0
 21
2.5
 31
0.0
  0
LINE
  5
1AE
330
1AA
100
AcDbEntity
  8
COTATION
 62
     0
100
AcDbLine
 10
0.0
 20
0.0
 30
0.0
 11
-2.5
 21
0.0
 31
0.0
  0
LINE
  5
1AF
330
1AA
100
AcDbEntity
  8
COTATION
 62
     0
100
AcDbLine
 10
0.0
 20
0.0
 30
0.0
 11
0.0
 21
-2.5
 31
0.0
  0
LINE
  5
1B0
330
1AA
100
AcDbEntity
  8
COTATION
 62
     0
100
AcDbLine
 10
0.0
 20
0.0
 30
0.0
 11
2.5
 21
0.0
 31
0.0
  0
LINE
  5
1B1
330
1AA
100
AcDbEntity
  8
COTATION
 62
     0
100
AcDbLine
 10
0.0
 20
5.0
 30
0.0
 11
0.0
 21
7.5
 31
0.0
  0
LINE
  5
1B2
330
1AA
100
AcDbEntity
  8
COTATION
 62
     0
100
AcDbLine
 10
-5.0
 20
0.0
 30
0.0
 11
-7.5
 21
0.0
 31
0.0
  0
LINE
  5
1B3
330
1AA
100
AcDbEntity
  8
COTATION
 62
     0
100
AcDbLine
 10
0.0
 20
-5.0
 30
0.0
 11
0.0
 21
-7.5
 31
0.0
  0
LINE
  5
1B4
330
1AA
100
AcDbEntity
  8
COTATION
 62
     0
100
AcDbLine
 10
5.0
 20
0.0
 30
0.0
 11
7.5
 21
0.0
 31
0.0
  0
ENDBLK
  5
1AC
330
1AA
100
AcDbEntity
  8
0
100
AcDbBlockEnd
  0
BLOCK
  5
20F
330
20E
100
AcDbEntity
  8
0
100
AcDbBlockBegin
  2
*D9
 70
     1
 10
0.0
 20
0.0
 30
0.0
  3
*D9
  1

  0
SOLID
  5
211
330
20E
100
AcDbEntity
  8
COTATION
100
AcDbTrace
 10
34.7967830857
 20
259.7676626236
 30
0.0
 11
38.6067830857
 21
259.1961626236
 31
0.0
 12
38.6067830857
 22
260.3391626236
 32
0.0
 13
38.6067830857
 23
260.3391626236
 33
0.0
  0
SOLID
  5
212
330
20E
100
AcDbEntity
  8
COTATION
100
AcDbTrace
 10
121.960286184
 20
259.7676626236
 30
0.0
 11
118.150286184
 21
260.3391626236
 31
0.0
 12
118.150286184
 22
259.1961626236
 32
0.0
 13
118.150286184
 23
259.1961626236
 33
0.0
  0
LINE
  5
213
330
20E
100
AcDbEntity
  8
COTATION
100
AcDbLine
 10
34.7967830857
 20
247.7688809696
 30
0.0
 11
34.7967830857
 21
260.7676626236
 31
0.0
  0
LINE
  5
214
330
20E
100
AcDbEntity
  8
COTATION
100
AcDbLine
 10
121.960286184
 20
247.7688809696
 30
0.0
 11
121.960286184
 21
260.7676626236
 31
0.0
  0
LINE
  5
215
330
20E
100
AcDbEntity
  8
COTATION
100
AcDbLine
 10
34.7967830857
 20
259.7676626236
 30
0.0
 11
121.960286184
 21
259.7676626236
 31
0.0
  0
MTEXT
  5
216
330
20E
100
AcDbEntity
  8
COTATION
100
AcDbMText
 10
73.0594742322
 20
263.8926792163
 30
0.0
 40
3.2
 41
0.0
 71
     1
 72
     1
  1
87,16
  7
SLDTEXTSTYLE0
 73
     1
 44
1.0
  0
ENDBLK
  5
210
330
20E
100
AcDbEntity
  8
0
100
AcDbBlockEnd
  0
BLOCK
  5
219
330
218
100
AcDbEntity
  8
0
100
AcDbBlockBegin
  2
*D10
 70
     1
 10
0.0
 20
0.0
 30
0.0
  3
*D10
  1

  0
SOLID
  5
21B
330
218
100
AcDbEntity
  8
COTATION
100
AcDbTrace
 10
138.064905857
 20
162.0041595253
 30
0.0
 11
138.636405857
 21
165.8141595253
 31
0.0
 12
137.493405857
 22
165.8141595253
 32
0.0
 13
137.493405857
 23
165.8141595253
 33
0.0
  0
SOLID
  5
21C
330
218
100
AcDbEntity
  8
COTATION
100
AcDbTrace
 10
138.064905857
 20
249.7676626236
 30
0.0
 11
137.493405857
 21
245.9576626236
 31
0.0
 12
138.636405857
 22
245.9576626236
 32
0.0
 13
138.636405857
 23
245.9576626236
 33
0.0
  0
LINE
  5
21D
330
218
100
AcDbEntity
  8
COTATION
100
AcDbLine
 10
119.96150453
 20
162.0041595253
 30
0.0
 11
139.064905857
 21
162.0041595253
 31
0.0
  0
LINE
  5
21E
330
218
100
AcDbEntity
  8
COTATION
100
AcDbLine
 10
119.96150453
 20
249.7676626236
 30
0.0
 11
139.064905857
 21
249.7676626236
 31
0.0
  0
LINE
  5
21F
330
218
100
AcDbEntity
  8
COTATION
100
AcDbLine
 10
138.064905857
 20
162.0041595253
 30
0.0
 11
138.064905857
 21
249.7676626236
 31
0.0
  0
MTEXT
  5
220
330
218
100
AcDbEntity
  8
COTATION
100
AcDbMText
 10
133.9398892643
 20
200.5668506718
 30
0.0
 40
3.2
 41
0.0
 71
     1
 72
     1
  1
87,76
  7
SLDTEXTSTYLE0
 11
6.123233995736766E-17
 21
1.0
 31
0.0
 73
     1
 44
1.0
  0
ENDBLK
  5
21A
330
218
100
AcDbEntity
  8
0
100
AcDbBlockEnd
  0
BLOCK
  5
249
330
248
100
AcDbEntity
  8
0
100
AcDbBlockBegin
  2
*D11
 70
     1
 10
0.0
 20
0.0
 30
0.0
  3
*D11
  1

  0
SOLID
  5
24B
330
248
100
AcDbEntity
  8
COTATION
100
AcDbTrace
 10
167.1389057039
 20
152.0041595253
 30
0.0
 11
170.9489057039
 21
151.4326595253
 31
0.0
 12
170.9489057039
 22
152.5756595253
 32
0.0
 13
170.9489057039
 23
152.5756595253
 33
0.0
  0
SOLID
  5
24C
330
248
100
AcDbEntity
  8
COTATION
100
AcDbTrace
 10
208.1389057039
 20
152.0041595253
 30
0.0
 11
204.3289057039
 21
152.5756595253
 31
0.0
 12
204.3289057039
 22
151.4326595253
 32
0.0
 13
204.3289057039
 23
151.4326595253
 33
0.0
  0
LINE
  5
24D
330
248
100
AcDbEntity
  8
COTATION
100
AcDbLine
 10
167.1389057039
 20
162.0041595253
 30
0.0
 11
167.1389057039
 21
151.0041595253
 31
0.0
  0
LINE
  5
24E
330
248
100
AcDbEntity
  8
COTATION
100
AcDbLine
 10
208.1389057039
 20
165.4346927285
 30
0.0
 11
208.1389057039
 21
151.0041595253
 31
0.0
  0
LINE
  5
24F
330
248
100
AcDbEntity
  8
COTATION
100
AcDbLine
 10
167.1389057039
 20
152.0041595253
 30
0.0
 11
208.1389057039
 21
152.0041595253
 31
0.0
  0
MTEXT
  5
250
330
248
100
AcDbEntity
  8
COTATION
100
AcDbMText
 10
185.2751070462
 20
156.1291761179
 30
0.0
 40
3.2
 41
0.0
 71
     1
 72
     1
  1
41
  7
SLDTEXTSTYLE0
 73
     1
 44
1.0
  0
ENDBLK
  5
24A
330
248
100
AcDbEntity
  8
0
100
AcDbBlockEnd
  0
BLOCK
  5
253
330
252
100
AcDbEntity
  8
0
100
AcDbBlockBegin
  2
*D12
 70
     1
 10
0.0
 20
0.0
 30
0.0
  3
*D12
  1

  0
SOLID
  5
255
330
252
100
AcDbEntity
  8
COTATION
100
AcDbTrace
 10
167.1389057039
 20
259.7676626236
 30
0.0
 11
170.9489057039
 21
259.1961626236
 31
0.0
 12
170.9489057039
 22
260.3391626236
 32
0.0
 13
170.9489057039
 23
260.3391626236
 33
0.0
  0
SOLID
  5
256
330
252
100
AcDbEntity
  8
COTATION
100
AcDbTrace
 10
221.6389057039
 20
259.7676626236
 30
0.0
 11
217.8289057039
 21
260.3391626236
 31
0.0
 12
217.8289057039
 22
259.1961626236
 32
0.0
 13
217.8289057039
 23
259.1961626236
 33
0.0
  0
LINE
  5
257
330
252
100
AcDbEntity
  8
COTATION
100
AcDbLine
 10
167.1389057039
 20
249.7676626236
 30
0.0
 11
167.1389057039
 21
260.7676626236
 31
0.0
  0
LINE
  5
258
330
252
100
AcDbEntity
  8
COTATION
100
AcDbLine
 10
221.6389057039
 20
226.9969410711
 30
0.0
 11
221.6389057039
 21
260.7676626236
 31
0.0
  0
LINE
  5
259
330
252
100
AcDbEntity
  8
COTATION
100
AcDbLine
 10
167.1389057039
 20
259.7676626236
 30
0.0
 11
221.6389057039
 21
259.7676626236
 31
0.0
  0
MTEXT
  5
25A
330
252
100
AcDbEntity
  8
COTATION
100
AcDbMText
 10
190.2527714757
 20
263.8926792163
 30
0.0
 40
3.2
 41
0.0
 71
     1
 72
     1
  1
54,5
  7
SLDTEXTSTYLE0
 73
     1
 44
1.0
  0
ENDBLK
  5
254
330
252
100
AcDbEntity
  8
0
100
AcDbBlockEnd
  0
BLOCK
  5
2BC
330
2BB
100
AcDbEntity
  8
0
100
AcDbBlockBegin
  2
SW_NOTE_2
 70
     0
 10
0.0
 20
0.0
 30
0.0
  3
SW_NOTE_2
  1

  0
MTEXT
  5
2BE
330
2BB
100
AcDbEntity
  8
NOTES
 62
     0
100
AcDbMText
 10
0.0
 20
4.5117370892
 30
0.0
 40
3.5
 41
0.0
 71
     1
 72
     1
  1
\LIsometric view
  7
SLDTEXTSTYLE0
 73
     1
 44
1.0
  0
MTEXT
  5
2C0
330
2BB
100
AcDbEntity
  8
NOTES
 62
     0
100
AcDbMText
 10
6.0180528089
 20
-0.0139574413
 30
0.0
 40
3.5
 41
0.0
 71
     1
 72
     1
  1
\L Scl. : 1/2
  7
SLDTEXTSTYLE4
 73
     1
 44
1.0
  0
ENDBLK
  5
2BD
330
2BB
100
AcDbEntity
  8
0
100
AcDbBlockEnd
  0
ENDSEC
  0
SECTION
  2
ENTITIES
  0
HATCH
  5
75
330
1F
100
AcDbEntity
  8
LOGO2
100
AcDbHatch
 10
0.0
 20
0.0
 30
0.0
210
0.0
220
0.0
230
1.0
  2
SOLID
 70
     1
 71
     0
 91
        1
 92
        0
 93
       11
 72
     4
 94
        3
 73
     1
 74
     0
 95
        8
 96
        4
 40
0.8333333333333333
 40
0.8333333333333333
 40
0.8333333333333333
 40
0.8333333333333333
 40
1.0
 40
1.0
 40
1.0
 40
1.0
 10
235.0450001491992
 20
25.36676174775082
 42
1.0
 10
234.6700100503477
 20
25.21917758939735
 42
1.0
 10
234.2398912386482
 20
25.11581125280738
 42
1.0
 10
233.7529209418242
 20
25.05482511421925
 42
1.0
 72
     4
 94
        3
 73
     1
 74
     0
 95
        8
 96
        4
 40
0.6666666666666666
 40
0.6666666666666666
 40
0.6666666666666666
 40
0.6666666666666666
 40
0.8332189192420315
 40
0.8332189192420315
 40
0.8332189192420315
 40
0.8332189192420315
 10
233.7529209418242
 20
25.05482511421925
 42
1.0
 10
233.51614498276
 20
25.02532854539741
 42
1.0
 10
233.2594122935026
 20
25.00328707693507
 42
1.0
 10
232.9839836403293
 20
24.98847147860004
 42
1.0
 72
     3
 10
242.5029842637128
 20
28.06784336711859
 11
-9.281964393266756
 21
-5.518954020724276
 40
0.4790317882064746
 50
347.1910077409
 51
475.4587400700618
 73
     1
 72
     1
 10
247.1444352925257
 20
24.95995778752663
 11
238.8288971773038
 21
24.95995778752663
 72
     2
 10
238.8288971773038
 20
26.10847263852661
 40
1.148514850999982
 50
90.0
 51
180.0
 73
     0
 72
     1
 10
237.6803823263038
 20
26.10847263852661
 11
237.6803823263038
 21
31.0378392828109
 72
     3
 10
242.5029842637128
 20
28.06784336711859
 11
-9.281964393266756
 21
-5.518954020724276
 40
0.4790317882064746
 50
297.6379401018559
 51
311.7284851151875
 73
     1
 72
     4
 94
        3
 73
     1
 74
     0
 95
        8
 96
        4
 40
0.4001113005305121
 40
0.4001113005305121
 40
0.4001113005305121
 40
0.4001113005305121
 40
0.6000000000000001
 40
0.6000000000000001
 40
0.6000000000000001
 40
0.6000000000000001
 10
236.4251473259389
 20
29.98840803535614
 42
1.0
 10
236.7550053393821
 20
29.58931726629197
 42
1.0
 10
236.9445550664821
 20
29.11014929751472
 42
1.0
 10
236.9916179701591
 20
28.55078946917817
 42
1.0
 72
     1
 10
236.991617970159
 20
28.55078946917817
 11
237.0031031186691
 21
28.26710630098111
 72
     4
 94
        3
 73
     1
 74
     0
 95
        8
 96
        4
 40
0.1666666666666667
 40
0.1666666666666667
 40
0.1666666666666667
 40
0.1666666666666667
 40
0.3333333333333333
 40
0.3333333333333333
 40
0.3333333333333333
 40
0.3333333333333333
 10
237.0031031186691
 20
28.26710630098112
 42
1.0
 10
237.0031031186691
 20
27.61911422204694
 42
1.0
 10
236.8265763860703
 20
27.03555382625383
 42
1.0
 10
236.4736377723581
 20
26.51653996508696
 42
1.0
 72
     4
 94
        3
 73
     1
 74
     0
 95
        8
 96
        4
 40
0.0
 40
0.0
 40
0.0
 40
0.0
 40
0.1666666666666667
 40
0.1666666666666667
 40
0.1666666666666667
 40
0.1666666666666667
 10
236.4736377723581
 20
26.51653996508696
 42
1.0
 10
236.1195506437948
 20
25.99695184649453
 42
1.0
 10
235.6441803469659
 20
25.61415184665622
 42
1.0
 10
235.0450001491992
 20
25.36676174775082
 42
1.0
 97
        0
 75
     0
 76
     1
 98
        1
 10
0.0
 20
0.0
  0
HATCH
  5
76
330
1F
100
AcDbEntity
  8
LOGO2
100
AcDbHatch
 10
0.0
 20
0.0
 30
0.0
210
0.0
220
0.0
230
1.0
  2
SOLID
 70
     1
 71
     0
 91
        1
 92
        0
 93
        8
 72
     1
 10
245.0481050939053
 20
26.81411292846658
 11
248.6213740979562
 21
35.13696347359802
 72
     3
 10
242.5029842637128
 20
28.06784336711859
 11
-9.281964393266756
 21
-5.518954020724276
 40
0.4790317882064746
 50
198.388252862738
 51
265.9349358139634
 73
     1
 72
     1
 10
240.1765714035215
 20
32.69940263933057
 11
240.1785169787139
 21
31.9557914479378
 72
     1
 10
240.1785169787139
 20
31.9557914479378
 11
241.8801731907169
 21
31.95487392757013
 72
     2
 10
241.8796397487091
 20
30.96553904381194
 40
0.9893350275721516
 50
270.0308934549906
 51
450.0000000000008
 73
     0
 72
     1
 10
241.8796397487091
 20
29.97620401623979
 11
240.1785169771504
 21
29.97620401623979
 72
     1
 10
240.1785169771504
 20
29.97620401623979
 11
240.1785169771504
 21
26.81411292846658
 72
     1
 10
240.1785169771504
 20
26.81411292846658
 11
245.0481050939053
 21
26.81411292846658
 97
        0
 75
     0
 76
     1
 98
        1
 10
0.0
 20
0.0
  0
HATCH
  5
77
330
1F
100
AcDbEntity
  8
LOGO2
100
AcDbHatch
 10
0.0
 20
0.0
 30
0.0
210
0.0
220
0.0
230
1.0
  2
SOLID
 70
     1
 71
     0
 91
        1
 92
        0
 93
       16
 72
     2
 10
250.5407050931486
 20
34.05964095199965
 40
0.5676534651067738
 50
0.0
 51
41.75773980553433
 73
     1
 72
     3
 10
242.5029842637128
 20
28.06784336711859
 11
-9.281964393266756
 21
-5.518954020724276
 40
0.4790317882064746
 50
186.2383696561383
 51
187.9643607356612
 73
     1
 72
     2
 10
250.5407050931486
 20
34.05964095199965
 40
0.5676534651067738
 50
76.67331802843833
 51
180.0
 73
     1
 72
     1
 10
249.9730516280419
 20
34.05964095199965
 11
249.9730516280419
 21
29.43537560741832
 72
     1
 10
249.9730516280419
 20
29.43537560741832
 11
249.4453090540074
 21
29.43537560741832
 72
     2
 10
249.4453090540074
 20
29.09082115211836
 40
0.3445544552999752
 50
90.0
 51
180.0
 73
     1
 72
     1
 10
249.1007545987074
 20
29.09082115211836
 11
249.1007545987074
 21
27.94471818230543
 72
     1
 10
249.1007545987074
 20
27.94471818230543
 11
248.4048694504865
 21
27.94471818230543
 72
     2
 10
248.4048694504865
 20
27.60016372700547
 40
0.3445544552999891
 50
90.0
 51
180.0
 73
     1
 72
     1
 10
248.0603149951865
 20
27.60016372700547
 11
248.0603149951865
 21
26.45291224234153
 72
     1
 10
248.0603149951865
 20
26.45291224234153
 11
247.5113248964085
 21
26.45291224234153
 72
     2
 10
247.5113248964085
 20
26.10835778704157
 40
0.3445544552999891
 50
90.0
 51
180.0
 73
     1
 72
     1
 10
247.1667704411085
 20
26.10835778704157
 11
247.1667704411085
 21
24.97679326844081
 72
     3
 10
242.5029842637128
 20
28.06784336711859
 11
-9.281964393266756
 21
-5.518954020724276
 40
0.4790317882064746
 50
115.7292479518694
 51
158.0895097581669
 73
     1
 72
     1
 10
251.3115242204637
 20
29.43537560741832
 11
251.1083585582554
 21
29.43537560741832
 72
     1
 10
251.1083585582554
 20
29.43537560741832
 11
251.1083585582554
 21
34.05964095199965
 97
        0
 75
     0
 76
     1
 98
        1
 10
0.0
 20
0.0
  0
HATCH
  5
78
330
1F
100
AcDbEntity
  8
LOGO1
 62
   156
100
AcDbHatch
 10
0.0
 20
0.0
 30
0.0
210
0.0
220
0.0
230
1.0
  2
SOLID
 70
     1
 71
     0
 91
        1
 92
        0
 93
       36
 72
     2
 10
227.9438893796201
 20
35.45713849118987
 40
1.148514851000024
 50
90.03360903891995
 51
180.0115505332992
 73
     1
 72
     1
 10
226.7953745519582
 20
35.45690695652792
 11
226.7963665401149
 21
30.53620481586539
 72
     2
 10
228.0462954212562
 20
30.53645679507716
 40
1.24992890654019
 50
180.0115505333007
 51
360.0000000000008
 73
     1
 72
     1
 10
229.2962243277964
 20
30.53645679507716
 11
229.2962243277964
 21
34.74725679329332
 72
     1
 10
229.2962243277964
 20
34.74725679329332
 11
231.3009565864243
 21
34.74725679329332
 72
     4
 94
        3
 73
     1
 74
     0
 95
        8
 96
        4
 40
0.4772727272727271
 40
0.4772727272727271
 40
0.4772727272727271
 40
0.4772727272727271
 40
0.4999999999999998
 40
0.4999999999999998
 40
0.4999999999999998
 40
0.4999999999999998
 10
231.3009565864243
 20
34.74725679329332
 42
1.0
 10
232.2047229226762
 20
34.74725679329338
 42
1.0
 10
232.8777526253621
 20
34.71831421904814
 42
1.0
 10
233.3183229222058
 20
34.52352610031856
 42
1.0
 72
     4
 94
        3
 73
     1
 74
     0
 95
        8
 96
        4
 40
0.4999999999999998
 40
0.4999999999999998
 40
0.4999999999999998
 40
0.4999999999999998
 40
0.5227272727272726
 40
0.5227272727272726
 40
0.5227272727272726
 40
0.5227272727272726
 10
233.3183229222058
 20
34.52352610031856
 42
1.0
 10
233.7592377735047
 20
34.32850827861872
 42
1.0
 10
233.9799823278669
 20
33.93606075403205
 42
1.0
 10
233.9799823278669
 20
33.34434590279683
 42
1.0
 72
     4
 94
        3
 73
     1
 74
     0
 95
        8
 96
        4
 40
0.5227272727272726
 40
0.5227272727272726
 40
0.5227272727272726
 40
0.5227272727272726
 40
0.5454545454545453
 40
0.5454545454545453
 40
0.5454545454545453
 40
0.5454545454545453
 10
233.9799823278669
 20
33.34434590279683
 42
1.0
 10
233.9799823278669
 20
33.06720926925055
 42
1.0
 10
233.90888925859
 20
32.81660332876235
 42
1.0
 10
233.7698041101339
 20
32.59241322984712
 42
1.0
 72
     4
 94
        3
 73
     1
 74
     0
 95
        8
 96
        4
 40
0.5454545454545453
 40
0.5454545454545453
 40
0.5454545454545453
 40
0.5454545454545453
 40
0.568181818181818
 40
0.568181818181818
 40
0.568181818181818
 40
0.568181818181818
 10
233.7698041101339
 20
32.59241322984712
 42
1.0
 10
233.5910951993183
 20
32.27737560621785
 42
1.0
 10
233.3319902489327
 20
32.06455580432754
 42
1.0
 10
232.9962793579854
 20
31.95326471526566
 42
1.0
 72
     4
 94
        3
 73
     1
 74
     0
 95
        8
 96
        4
 40
0.568181818181818
 40
0.568181818181818
 40
0.568181818181818
 40
0.568181818181818
 40
0.5909090909090907
 40
0.5909090909090907
 40
0.5909090909090907
 40
0.5909090909090907
 10
232.9962793579854
 20
31.95326471526566
 42
1.0
 10
232.9344892590016
 20
31.93270629943273
 42
1.0
 10
232.8681051006138
 20
31.91421521033167
 42
1.0
 10
232.7968971798518
 20
31.89710233905174
 42
1.0
 72
     1
 10
232.7968971798518
 20
31.89710233905174
 11
232.7968971798518
 21
31.89113006182653
 72
     4
 94
        3
 73
     1
 74
     0
 95
        8
 96
        4
 40
0.6136363636363634
 40
0.6136363636363634
 40
0.6136363636363634
 40
0.6136363636363634
 40
0.6363636363636361
 40
0.6363636363636361
 40
0.6363636363636361
 40
0.6363636363636361
 10
232.7968971798518
 20
31.89113006182653
 42
1.0
 10
232.4165090612006
 20
31.76938748762054
 42
1.0
 10
232.1383387642884
 20
31.40990233925756
 42
1.0
 10
232.1383387642884
 20
30.97920927013254
 42
1.0
 72
     4
 94
        3
 73
     1
 74
     0
 95
        8
 96
        4
 40
0.6363636363636361
 40
0.6363636363636361
 40
0.6363636363636361
 40
0.6363636363636361
 40
0.6590909090909088
 40
0.6590909090909088
 40
0.6590909090909088
 40
0.6590909090909088
 10
232.1383387642884
 20
30.97920927013254
 42
1.0
 10
232.1383387642884
 20
30.54863105249261
 42
1.0
 10
232.4165090612006
 20
30.18857164670413
 42
1.0
 10
232.7968971798518
 20
30.06625481507264
 42
1.0
 72
     4
 94
        2
 73
     1
 74
     0
 95
        6
 96
        3
 40
0.6590909090909088
 40
0.6590909090909088
 40
0.6590909090909088
 40
0.6818181818181815
 40
0.6818181818181815
 40
0.6818181818181815
 10
232.7968971798518
 20
30.06625481507264
 42
1.0
 10
232.8342239125093
 20
30.05385085468182
 42
1.0
 10
232.8891229223871
 20
30.03742709231255
 42
1.0
 72
     4
 94
        3
 73
     1
 74
     0
 95
        8
 96
        4
 40
0.6818181818181815
 40
0.6818181818181815
 40
0.6818181818181815
 40
0.6818181818181815
 40
0.7045454545454543
 40
0.7045454545454543
 40
0.7045454545454543
 40
0.7045454545454543
 10
232.8891229223871
 20
30.03742709231255
 42
1.0
 10
233.2649169816343
 20
29.97242115174592
 42
1.0
 10
233.5771981696212
 20
29.86825085476025
 42
1.0
 10
233.8197645061524
 20
29.72066669640672
 42
1.0
 72
     4
 94
        3
 73
     1
 74
     0
 95
        8
 96
        4
 40
0.7045454545454543
 40
0.7045454545454543
 40
0.7045454545454543
 40
0.7045454545454543
 40
0.727272727272727
 40
0.727272727272727
 40
0.727272727272727
 40
0.727272727272727
 10
233.8197645061524
 20
29.72066669640672
 42
1.0
 10
234.2551664861665
 20
29.45616372622145
 42
1.0
 10
234.4725803474608
 20
29.14985481545973
 42
1.0
 10
234.4725803474608
 20
28.56319342956898
 42
1.0
 72
     4
 94
        3
 73
     1
 74
     0
 95
        8
 96
        4
 40
0.727272727272727
 40
0.727272727272727
 40
0.727272727272727
 40
0.727272727272727
 40
0.7499999999999997
 40
0.7499999999999997
 40
0.7499999999999997
 40
0.7499999999999997
 10
234.4725803474608
 20
28.56319342956898
 42
1.0
 10
234.4725803474608
 20
27.41525283599444
 42
1.0
 10
233.6329011398946
 20
26.84191422237525
 42
1.0
 10
231.9545763881284
 20
26.84191422237525
 42
1.0
 72
     1
 10
231.9545763881284
 20
26.84191422237525
 11
226.7826991625903
 21
26.84191422237525
 72
     1
 10
226.7826991625903
 20
26.84191422237525
 11
226.7826991625903
 21
26.11088451971377
 72
     2
 10
227.9312140135902
 20
26.11088451971377
 40
1.14851485100001
 50
180.0
 51
270.0351459458573
 73
     1
 72
     1
 10
227.9319185268822
 20
24.96236988479239
 11
232.0507070811571
 21
24.96489640138594
 72
     4
 94
        3
 73
     1
 74
     0
 95
        8
 96
        4
 40
0.954545454545454
 40
0.954545454545454
 40
0.954545454545454
 40
0.954545454545454
 40
0.9772727272727267
 40
0.9772727272727267
 40
0.9772727272727267
 40
0.9772727272727267
 10
232.0507070811571
 20
24.96489640138594
 42
1.0
 10
232.3830872790365
 20
24.96489640138594
 42
1.0
 10
232.6935308432618
 20
24.97305085682805
 42
1.0
 10
232.9834159916542
 20
24.98844095583141
 42
1.0
 72
     4
 94
        3
 73
     1
 74
     0
 95
        8
 96
        4
 40
0.6666666666666666
 40
0.6666666666666666
 40
0.6666666666666666
 40
0.6666666666666666
 40
0.8333333333333333
 40
0.8333333333333333
 40
0.8333333333333333
 40
0.8333333333333333
 10
232.9834159916542
 20
24.98844095583141
 42
1.0
 10
233.2590595558942
 20
25.00325679740934
 42
1.0
 10
233.5159823280629
 20
25.02530828254856
 42
1.0
 10
233.7529209418242
 20
25.05482511421925
 42
1.0
 72
     4
 94
        3
 73
     1
 74
     0
 95
        8
 96
        4
 40
0.8333333333333333
 40
0.8333333333333333
 40
0.8333333333333333
 40
0.8333333333333333
 40
1.0
 40
1.0
 40
1.0
 40
1.0
 10
233.7529209418242
 20
25.05482511421925
 42
1.0
 10
234.2398912386482
 20
25.11581125280738
 42
1.0
 10
234.6700100503477
 20
25.21917758939735
 42
1.0
 10
235.0450001491992
 20
25.36676174775082
 42
1.0
 72
     4
 94
        3
 73
     1
 74
     0
 95
        8
 96
        4
 40
0.0
 40
0.0
 40
0.0
 40
0.0
 40
0.1666666666666667
 40
0.1666666666666667
 40
0.1666666666666667
 40
0.1666666666666667
 10
235.0450001491992
 20
25.36676174775082
 42
1.0
 10
235.6441803469659
 20
25.61415184665622
 42
1.0
 10
236.1195506437948
 20
25.99695184649453
 42
1.0
 10
236.4736377723581
 20
26.51653996508696
 42
1.0
 72
     4
 94
        3
 73
     1
 74
     0
 95
        8
 96
        4
 40
0.1666666666666667
 40
0.1666666666666667
 40
0.1666666666666667
 40
0.1666666666666667
 40
0.3333333333333333
 40
0.3333333333333333
 40
0.3333333333333333
 40
0.3333333333333333
 10
236.4736377723581
 20
26.51653996508696
 42
1.0
 10
236.8265763860703
 20
27.03555382625383
 42
1.0
 10
237.0031031186691
 20
27.61911422204694
 42
1.0
 10
237.0031031186691
 20
28.26710630098112
 42
1.0
 72
     1
 10
237.0031031186691
 20
28.26710630098112
 11
236.9916179701591
 21
28.55078946917817
 72
     4
 94
        3
 73
     1
 74
     0
 95
        8
 96
        4
 40
0.4
 40
0.4
 40
0.4
 40
0.4
 40
0.6000000000000001
 40
0.6000000000000001
 40
0.6000000000000001
 40
0.6000000000000001
 10
236.9916179701591
 20
28.55078946917817
 42
1.0
 10
236.9445288612681
 20
29.11046075607043
 42
1.0
 10
236.7547942078829
 20
29.58985085487786
 42
1.0
 10
236.4245961882204
 20
29.98907461708545
 42
1.0
 72
     4
 94
        3
 73
     1
 74
     0
 95
        8
 96
        4
 40
0.0
 40
0.0
 40
0.0
 40
0.0
 40
0.0227272727272727
 40
0.0227272727272727
 40
0.0227272727272727
 40
0.0227272727272727
 10
236.4245961882204
 20
29.98907461708545
 42
1.0
 10
236.0200892576982
 20
30.47811224064123
 42
1.0
 10
235.4043704460771
 20
30.84781917117813
 42
1.0
 10
234.573879357319
 20
31.09647263641963
 42
1.0
 72
     4
 94
        3
 73
     1
 74
     0
 95
        8
 96
        4
 40
0.0227272727272727
 40
0.0227272727272727
 40
0.0227272727272727
 40
0.0227272727272727
 40
0.0454545454545455
 40
0.0454545454545455
 40
0.0454545454545455
 40
0.0454545454545455
 10
234.573879357319
 20
31.09647263641963
 42
1.0
 10
235.8069249013526
 20
31.63615976490453
 42
1.0
 10
236.4232179703992
 20
32.48893204177206
 42
1.0
 10
236.4232179703992
 20
33.65421520959666
 42
1.0
 72
     4
 94
        3
 73
     1
 74
     0
 95
        8
 96
        4
 40
0.0454545454545455
 40
0.0454545454545455
 40
0.0454545454545455
 40
0.0454545454545455
 40
0.0681818181818182
 40
0.0681818181818182
 40
0.0681818181818182
 40
0.0681818181818182
 10
236.4232179703992
 20
33.65421520959666
 42
1.0
 10
236.4232179703992
 20
33.99279738767147
 42
1.0
 10
236.3648734159684
 20
34.31495580337695
 42
1.0
 10
236.2465763863154
 20
34.61954194186212
 42
1.0
 72
     4
 94
        3
 73
     1
 74
     0
 95
        8
 96
        4
 40
0.0681818181818182
 40
0.0681818181818182
 40
0.0681818181818182
 40
0.0681818181818182
 40
0.0909090909090909
 40
0.0909090909090909
 40
0.0909090909090909
 40
0.0909090909090909
 10
236.2465763863154
 20
34.61954194186212
 42
1.0
 10
236.1285090596326
 20
34.92378352589204
 42
1.0
 10
235.9582991587144
 20
35.20137956537878
 42
1.0
 10
235.7334199508886
 20
35.45393798111363
 42
1.0
 72
     4
 94
        3
 73
     1
 74
     0
 95
        8
 96
        4
 40
0.0909090909090909
 40
0.0909090909090909
 40
0.0909090909090909
 40
0.0909090909090909
 40
0.1136363636363637
 40
0.1136363636363637
 40
0.1136363636363637
 40
0.1136363636363637
 10
235.7334199508886
 20
35.45393798111363
 42
1.0
 10
235.5090001490032
 20
35.70488847605713
 42
1.0
 10
235.251503119409
 20
35.91299936705833
 42
1.0
 10
234.9608140106209
 20
36.07700728778113
 42
1.0
 72
     4
 94
        3
 73
     1
 74
     0
 95
        8
 96
        4
 40
0.1136363636363637
 40
0.1136363636363637
 40
0.1136363636363637
 40
0.1136363636363637
 40
0.1363636363636364
 40
0.1363636363636364
 40
0.1363636363636364
 40
0.1363636363636364
 10
234.9608140106209
 20
36.07700728778113
 42
1.0
 10
234.6189011394782
 20
36.27110629760016
 42
1.0
 10
234.2340338129081
 20
36.40295580249492
 42
1.0
 10
233.8026516348725
 20
36.4711775846443
 42
1.0
 72
     4
 94
        3
 73
     1
 74
     0
 95
        8
 96
        4
 40
0.1363636363636364
 40
0.1363636363636364
 40
0.1363636363636364
 40
0.1363636363636364
 40
0.1590909090909091
 40
0.1590909090909091
 40
0.1590909090909091
 40
0.1590909090909091
 10
233.8026516348725
 20
36.4711775846443
 42
1.0
 10
233.3731070805985
 20
36.53928451530864
 42
1.0
 10
232.86374074418
 20
36.60819540636867
 42
1.0
 10
232.2771942097743
 20
36.60819540636867
 42
1.0
 72
     1
 10
232.2771942097743
 20
36.60819540636867
 11
227.9432156741842
 21
36.60565314459602
 97
        0
 75
     0
 76
     1
 98
        1
 10
0.0
 20
0.0
  0
HATCH
  5
79
330
1F
100
AcDbEntity
  8
LOGO1
 62
   156
100
AcDbHatch
 10
0.0
 20
0.0
 30
0.0
210
0.0
220
0.0
230
1.0
  2
SOLID
 70
     1
 71
     0
 91
        1
 92
        0
 93
       44
 72
     2
 10
238.8288971773038
 20
26.10847263852661
 40
1.148514850999982
 50
90.0
 51
180.0
 73
     0
 72
     1
 10
237.6803823263038
 20
26.10847263852661
 11
237.6803823263038
 21
35.46094885489814
 72
     2
 10
238.8288971773038
 20
35.46094885489814
 40
1.14851485099999
 50
180.0
 51
270.0123096399428
 73
     0
 72
     1
 10
238.8291439285356
 20
36.60946367939167
 11
244.7287909547445
 21
36.60819617710089
 72
     2
 10
244.72858826086
 20
35.66474827826771
 40
0.9434479206069416
 50
270.0123096399413
 51
450.0000000000008
 73
     0
 72
     1
 10
244.72858826086
 20
34.72130035766074
 11
240.1712813351526
 21
34.72130035766074
 72
     1
 10
240.1712813351526
 20
34.72130035766074
 11
240.1785169787139
 21
31.95579144793781
 72
     1
 10
240.1785169787139
 20
31.95579144793781
 11
241.8801731907169
 21
31.95487392757012
 72
     2
 10
241.8796397487091
 20
30.96553904381194
 40
0.9893350275721516
 50
270.0308934549906
 51
450.0000000000008
 73
     0
 72
     1
 10
241.8796397487091
 20
29.97620401623979
 11
240.1785169771504
 21
29.97620401623979
 72
     1
 10
240.1785169771504
 20
29.97620401623979
 11
240.1785169771504
 21
26.81411292846658
 72
     1
 10
240.1785169771504
 20
26.81411292846658
 11
245.0481050939053
 21
26.81411292846658
 72
     1
 10
245.0481050939053
 20
26.81411292846658
 11
248.667764498317
 21
35.24501589520228
 72
     4
 94
        3
 73
     1
 74
     0
 95
        8
 96
        4
 40
0.2692307692307693
 40
0.2692307692307693
 40
0.2692307692307693
 40
0.2692307692307693
 40
0.3076923076923077
 40
0.3076923076923077
 40
0.3076923076923077
 40
0.3076923076923077
 10
248.667764498317
 20
35.24501589520228
 42
1.0
 10
248.7922635081654
 20
35.54340005349209
 42
1.0
 10
248.9267545972175
 20
35.79067530091239
 42
1.0
 10
249.0696298446818
 20
35.98741589488868
 42
1.0
 72
     4
 94
        3
 73
     1
 74
     0
 95
        8
 96
        4
 40
0.2307692307692308
 40
0.2307692307692308
 40
0.2307692307692308
 40
0.2307692307692308
 40
0.2692307692307693
 40
0.2692307692307693
 40
0.2692307692307693
 40
0.2692307692307693
 10
249.0696298446818
 20
35.98741589488868
 42
1.0
 10
249.2118159832356
 20
36.18369708292457
 42
1.0
 10
249.3984496465231
 20
36.34448916206462
 42
1.0
 10
249.6311387553358
 20
36.46680599369611
 42
1.0
 72
     4
 94
        3
 73
     1
 74
     0
 95
        8
 96
        4
 40
0.1923076923076923
 40
0.1923076923076923
 40
0.1923076923076923
 40
0.1923076923076923
 40
0.2307692307692308
 40
0.2307692307692308
 40
0.2307692307692308
 40
0.2307692307692308
 10
249.6311387553358
 20
36.46680599369611
 42
1.0
 10
249.8639427156334
 20
36.58820401344681
 42
1.0
 10
250.1499229135325
 20
36.64919015203488
 42
1.0
 10
250.4906872698242
 20
36.64919015203488
 42
1.0
 72
     4
 94
        3
 73
     1
 74
     0
 95
        8
 96
        4
 40
0.1538461538461539
 40
0.1538461538461539
 40
0.1538461538461539
 40
0.1538461538461539
 40
0.1923076923076923
 40
0.1923076923076923
 40
0.1923076923076923
 40
0.1923076923076923
 10
250.4906872698242
 20
36.64919015203488
 42
1.0
 10
250.8366199429454
 20
36.64919015203488
 42
1.0
 10
251.1258159824272
 20
36.58820401344681
 42
1.0
 10
251.3580456852993
 20
36.46680599369611
 42
1.0
 72
     4
 94
        3
 73
     1
 74
     0
 95
        8
 96
        4
 40
0.1153846153846154
 40
0.1153846153846154
 40
0.1153846153846154
 40
0.1153846153846154
 40
0.1538461538461539
 40
0.1538461538461539
 40
0.1538461538461539
 40
0.1538461538461539
 10
251.3580456852993
 20
36.46680599369611
 42
1.0
 10
251.5907347941119
 20
36.34448916206462
 42
1.0
 10
251.7775981603696
 20
36.18771688490313
 42
1.0
 10
251.9210476652596
 20
35.9959149047861
 42
1.0
 72
     4
 94
        3
 73
     1
 74
     0
 95
        8
 96
        4
 40
0.0769230769230769
 40
0.0769230769230769
 40
0.0769230769230769
 40
0.0769230769230769
 40
0.1153846153846154
 40
0.1153846153846154
 40
0.1153846153846154
 40
0.1153846153846154
 10
251.9210476652596
 20
35.9959149047861
 42
1.0
 10
252.0630041008432
 20
35.80342381575852
 42
1.0
 10
252.1831387542578
 20
35.59760995445932
 42
1.0
 10
252.2806476651076
 20
35.376750548612
 42
1.0
 72
     1
 10
252.2806476651076
 20
35.376750548612
 11
256.1593939542088
 21
26.57037716940946
 72
     2
 10
255.1083145599884
 20
26.10743174064628
 40
1.148514850999989
 50
336.2290216667355
 51
450.0000000000008
 73
     0
 72
     1
 10
255.1083145599884
 20
24.9589168896463
 11
253.9144100422186
 21
24.9589168896463
 72
     1
 10
253.9144100422186
 20
24.9589168896463
 11
253.9144100422186
 21
26.10835778704157
 72
     2
 10
253.5698555869186
 20
26.10835778704157
 40
0.3445544552999891
 50
0.0
 51
90.0
 73
     1
 72
     1
 10
253.5698555869186
 20
26.45291224234153
 11
253.0212100425959
 21
26.45291224234153
 72
     1
 10
253.0212100425959
 20
26.45291224234153
 11
253.0212100425959
 21
27.60016372700547
 72
     2
 10
252.6766555872959
 20
27.60016372700547
 40
0.3445544552999891
 50
0.0
 51
90.0
 73
     1
 72
     1
 10
252.6766555872959
 20
27.94471818230543
 11
251.9806555875899
 21
27.94471818230543
 72
     1
 10
251.9806555875899
 20
27.94471818230543
 11
251.9806555875899
 21
29.09082115211836
 72
     2
 10
251.6361011322898
 20
29.09082115211836
 40
0.3445544552999891
 50
0.0
 51
90.0
 73
     1
 72
     1
 10
251.6361011322898
 20
29.43537560741832
 11
251.1083585582554
 21
29.43537560741832
 72
     1
 10
251.1083585582554
 20
29.43537560741832
 11
251.1083585582554
 21
34.05964095199965
 72
     2
 10
250.5407050931486
 20
34.05964095199965
 40
0.5676534651067738
 50
0.0
 51
180.0
 73
     1
 72
     1
 10
249.9730516280419
 20
34.05964095199965
 11
249.9730516280419
 21
29.43537560741832
 72
     1
 10
249.9730516280419
 20
29.43537560741832
 11
249.4453090540074
 21
29.43537560741834
 72
     2
 10
249.4453090540074
 20
29.09082115211836
 40
0.3445544552999752
 50
90.0
 51
180.0
 73
     1
 72
     1
 10
249.1007545987074
 20
29.09082115211836
 11
249.1007545987074
 21
27.94471818230543
 72
     1
 10
249.1007545987074
 20
27.94471818230543
 11
248.4048694504865
 21
27.94471818230545
 72
     2
 10
248.4048694504865
 20
27.60016372700547
 40
0.3445544552999891
 50
90.0
 51
180.0
 73
     1
 72
     1
 10
248.0603149951865
 20
27.60016372700547
 11
248.0603149951865
 21
26.45291224234153
 72
     1
 10
248.0603149951865
 20
26.45291224234153
 11
247.5113248964085
 21
26.45291224234156
 72
     2
 10
247.5113248964085
 20
26.10835778704157
 40
0.3445544552999891
 50
90.0
 51
180.0
 73
     1
 72
     1
 10
247.1667704411085
 20
26.10835778704157
 11
247.1667704411085
 21
24.95995778752663
 72
     1
 10
247.1667704411085
 20
24.95995778752663
 11
238.8288971773038
 21
24.95995778752663
 97
        0
 75
     0
 76
     1
 98
        1
 10
0.0
 20
0.0
  0
LINE
  5
7A
330
1F
100
AcDbEntity
  8
SLD-0
 62
     9
370
     0
100
AcDbLine
 10
324.5519474197
 20
22.2906533893
 30
0.0
 11
324.5519474197
 21
12.25
 31
0.0
  0
LINE
  5
7B
330
1F
100
AcDbEntity
  8
LOGO1
100
AcDbLine
 10
227.9432156742
 20
36.6056531446
 30
0.0
 11
232.2771942098
 21
36.6081954064
 31
0.0
  0
LINE
  5
7C
330
1F
100
AcDbEntity
  8
LOGO1
100
AcDbLine
 10
248.6677644983
 20
35.2450158952
 30
0.0
 11
245.0481050939
 21
26.8141129285
 31
0.0
  0
LINE
  5
7D
330
1F
100
AcDbEntity
  8
LOGO1
100
AcDbLine
 10
226.795374552
 20
35.4569069565
 30
0.0
 11
226.7963665401
 21
30.5362048159
 31
0.0
  0
LINE
  5
7E
330
1F
100
AcDbEntity
  8
LOGO1
100
AcDbLine
 10
229.2962243278
 20
34.7472567933
 30
0.0
 11
229.2962243278
 21
30.5364567951
 31
0.0
  0
LINE
  5
7F
330
1F
100
AcDbEntity
  8
LOGO1
100
AcDbLine
 10
231.3009565864
 20
34.7472567933
 30
0.0
 11
229.2962243278
 21
34.7472567933
 31
0.0
  0
LINE
  5
80
330
1F
100
AcDbEntity
  8
LOGO1
100
AcDbLine
 10
231.9545763881
 20
26.8419142224
 30
0.0
 11
226.7826991626
 21
26.8419142224
 31
0.0
  0
LINE
  5
81
330
1F
100
AcDbEntity
  8
LOGO1
100
AcDbLine
 10
226.7826991626
 20
26.1108845197
 30
0.0
 11
226.7826991626
 21
26.8419142224
 31
0.0
  0
LINE
  5
82
330
1F
100
AcDbEntity
  8
LOGO1
 62
   228
100
AcDbLine
 10
232.7968971799
 20
31.8971023391
 30
0.0
 11
232.7968971799
 21
31.8911300618
 31
0.0
  0
LINE
  5
83
330
1F
100
AcDbEntity
  8
LOGO1
 62
   228
100
AcDbLine
 10
227.9319185269
 20
24.9623698848
 30
0.0
 11
232.0507070812
 21
24.9648964014
 31
0.0
  0
LINE
  5
84
330
1F
100
AcDbEntity
  8
LOGO1
100
AcDbLine
 10
236.9916179702
 20
28.5507894692
 30
0.0
 11
237.0031031187
 21
28.267106301
 31
0.0
  0
LINE
  5
85
330
1F
100
AcDbEntity
  8
LOGO1
 62
   228
100
AcDbLine
 10
240.1785169787
 20
31.9557914479
 30
0.0
 11
240.1712813352
 21
34.7213003577
 31
0.0
  0
LINE
  5
86
330
1F
100
AcDbEntity
  8
LOGO1
 62
   228
100
AcDbLine
 10
240.1712813352
 20
34.7213003577
 30
0.0
 11
244.7285882609
 21
34.7213003577
 31
0.0
  0
LINE
  5
87
330
1F
100
AcDbEntity
  8
LOGO1
100
AcDbLine
 10
251.1083585583
 20
29.4353756074
 30
0.0
 11
251.6361011323
 21
29.4353756074
 31
0.0
  0
LINE
  5
88
330
1F
100
AcDbEntity
  8
LOGO1
 62
   228
100
AcDbLine
 10
244.7287909547
 20
36.6081961771
 30
0.0
 11
238.8291439285
 21
36.6094636794
 31
0.0
  0
LINE
  5
89
330
1F
100
AcDbEntity
  8
LOGO1
100
AcDbLine
 10
237.6803823263
 20
26.1084726385
 30
0.0
 11
237.6803823263
 21
35.4609488549
 31
0.0
  0
LINE
  5
8A
330
1F
100
AcDbEntity
  8
LOGO1
 62
   228
100
AcDbLine
 10
256.1593939542
 20
26.5703771694
 30
0.0
 11
252.2806476651
 21
35.3767505486
 31
0.0
  0
LINE
  5
8B
330
1F
100
AcDbEntity
  8
LOGO1
 62
   228
100
AcDbLine
 10
251.9806555876
 20
29.0908211521
 30
0.0
 11
251.9806555876
 21
27.9447181823
 31
0.0
  0
LINE
  5
8C
330
1F
100
AcDbEntity
  8
LOGO1
 62
   228
100
AcDbLine
 10
251.9806555876
 20
27.9447181823
 30
0.0
 11
252.6766555873
 21
27.9447181823
 31
0.0
  0
LINE
  5
8D
330
1F
100
AcDbEntity
  8
LOGO1
 62
   228
100
AcDbLine
 10
253.0212100426
 20
27.600163727
 30
0.0
 11
253.0212100426
 21
26.4529122423
 31
0.0
  0
LINE
  5
8E
330
1F
100
AcDbEntity
  8
LOGO1
 62
   228
100
AcDbLine
 10
253.0212100426
 20
26.4529122423
 30
0.0
 11
253.5698555869
 21
26.4529122423
 31
0.0
  0
LINE
  5
8F
330
1F
100
AcDbEntity
  8
LOGO1
 62
   228
100
AcDbLine
 10
253.9144100422
 20
26.108357787
 30
0.0
 11
253.9144100422
 21
24.9589168896
 31
0.0
  0
LINE
  5
90
330
1F
100
AcDbEntity
  8
LOGO1
 62
   228
100
AcDbLine
 10
253.9144100422
 20
24.9589168896
 30
0.0
 11
255.10831456
 21
24.9589168896
 31
0.0
  0
LINE
  5
91
330
1F
100
AcDbEntity
  8
LOGO1
100
AcDbLine
 10
240.1785169787
 20
31.9557914479
 30
0.0
 11
241.8801731907
 21
31.9548739276
 31
0.0
  0
LINE
  5
92
330
1F
100
AcDbEntity
  8
PV
  6
Continuous
100
AcDbLine
 10
409.0
 20
12.25
 30
0.0
 11
409.0
 21
284.75
 31
0.0
  0
LINE
  5
93
330
1F
100
AcDbEntity
  8
PV
  6
Continuous
100
AcDbLine
 10
11.0
 20
12.25
 30
0.0
 11
409.0
 21
12.25
 31
0.0
  0
LINE
  5
94
330
1F
100
AcDbEntity
  8
LOGO1
100
AcDbLine
 10
240.1785169772
 20
26.8141129285
 30
0.0
 11
245.0481050939
 21
26.8141129285
 31
0.0
  0
LINE
  5
95
330
1F
100
AcDbEntity
  8
PV
  6
Continuous
100
AcDbLine
 10
5.0
 20
6.25
 30
0.0
 11
11.0
 21
6.25
 31
0.0
  0
LINE
  5
96
330
1F
100
AcDbEntity
  8
PV
  6
Continuous
100
AcDbLine
 10
5.0
 20
290.75
 30
0.0
 11
11.0
 21
290.75
 31
0.0
  0
LINE
  5
97
330
1F
100
AcDbEntity
  8
PV
  6
Continuous
100
AcDbLine
 10
5.0
 20
290.75
 30
0.0
 11
5.0
 21
284.75
 31
0.0
  0
LINE
  5
98
330
1F
100
AcDbEntity
  8
PV
  6
Continuous
100
AcDbLine
 10
415.0
 20
290.75
 30
0.0
 11
415.0
 21
284.75
 31
0.0
  0
LINE
  5
99
330
1F
100
AcDbEntity
  8
PV
  6
Continuous
100
AcDbLine
 10
209.0
 20
14.45
 30
0.0
 11
209.0
 21
6.25
 31
0.0
  0
LINE
  5
9A
330
1F
100
AcDbEntity
  8
PV
  6
Continuous
100
AcDbLine
 10
207.124356
 20
13.25
 30
0.0
 11
210.875644
 21
13.25
 31
0.0
  0
LINE
  5
9B
330
1F
100
AcDbEntity
  8
PV
  6
Continuous
100
AcDbLine
 10
209.0
 20
6.25
 30
0.0
 11
210.875644
 21
13.25
 31
0.0
  0
LINE
  5
9C
330
1F
100
AcDbEntity
  8
PV
  6
Continuous
100
AcDbLine
 10
209.0
 20
6.25
 30
0.0
 11
207.124356
 21
13.25
 31
0.0
  0
LINE
  5
9D
330
1F
100
AcDbEntity
  8
PV
  6
Continuous
100
AcDbLine
 10
309.5
 20
12.25
 30
0.0
 11
309.5
 21
6.25
 31
0.0
  0
LINE
  5
9E
330
1F
100
AcDbEntity
  8
PV
  6
Continuous
100
AcDbLine
 10
209.0
 20
12.25
 30
0.0
 11
209.0
 21
6.25
 31
0.0
  0
LINE
  5
9F
330
1F
100
AcDbEntity
  8
PV
  6
Continuous
100
AcDbLine
 10
259.75
 20
12.25
 30
0.0
 11
259.75
 21
6.25
 31
0.0
  0
LINE
  5
A0
330
1F
100
AcDbEntity
  8
PV
  6
Continuous
100
AcDbLine
 10
160.25
 20
12.25
 30
0.0
 11
160.25
 21
6.25
 31
0.0
  0
LINE
  5
A1
330
1F
100
AcDbEntity
  8
PV
  6
Continuous
100
AcDbLine
 10
110.5
 20
12.25
 30
0.0
 11
110.5
 21
6.25
 31
0.0
  0
LINE
  5
A2
330
1F
100
AcDbEntity
  8
PV
  6
Continuous
100
AcDbLine
 10
5.0
 20
12.25
 30
0.0
 11
5.0
 21
6.25
 31
0.0
  0
LINE
  5
A3
330
1F
100
AcDbEntity
  8
PV
  6
Continuous
100
AcDbLine
 10
5.0
 20
80.375
 30
0.0
 11
11.0
 21
80.375
 31
0.0
  0
LINE
  5
A4
330
1F
100
AcDbEntity
  8
PV
  6
Continuous
100
AcDbLine
 10
5.0
 20
148.5
 30
0.0
 11
11.0
 21
148.5
 31
0.0
  0
LINE
  5
A5
330
1F
100
AcDbEntity
  8
PV
  6
Continuous
100
AcDbLine
 10
5.0
 20
216.625
 30
0.0
 11
11.0
 21
216.625
 31
0.0
  0
LINE
  5
A6
330
1F
100
AcDbEntity
  8
PV
  6
Continuous
100
AcDbLine
 10
11.0
 20
284.75
 30
0.0
 11
409.0
 21
284.75
 31
0.0
  0
LINE
  5
A7
330
1F
100
AcDbEntity
  8
PV
  6
Continuous
100
AcDbLine
 10
11.0
 20
284.75
 30
0.0
 11
11.0
 21
12.25
 31
0.0
  0
LINE
  5
A8
330
1F
100
AcDbEntity
  8
PV
  6
Continuous
100
AcDbLine
 10
12.0
 20
153.625644
 30
0.0
 11
12.0
 21
149.874356
 31
0.0
  0
LINE
  5
A9
330
1F
100
AcDbEntity
  8
PV
  6
Continuous
100
AcDbLine
 10
5.0
 20
151.75
 30
0.0
 11
12.0
 21
149.874356
 31
0.0
  0
LINE
  5
AA
330
1F
100
AcDbEntity
  8
PV
  6
Continuous
100
AcDbLine
 10
13.2
 20
151.75
 30
0.0
 11
5.0
 21
151.75
 31
0.0
  0
LINE
  5
AB
330
1F
100
AcDbEntity
  8
PV
  6
Continuous
100
AcDbLine
 10
5.0
 20
151.75
 30
0.0
 11
12.0
 21
153.625644
 31
0.0
  0
LINE
  5
AC
330
1F
100
AcDbEntity
  8
PV
  6
Continuous
100
AcDbLine
 10
60.75
 20
290.75
 30
0.0
 11
60.75
 21
284.75
 31
0.0
  0
LINE
  5
AD
330
1F
100
AcDbEntity
  8
PV
  6
Continuous
100
AcDbLine
 10
5.0
 20
151.75
 30
0.0
 11
11.0
 21
151.75
 31
0.0
  0
LINE
  5
AE
330
1F
100
AcDbEntity
  8
PV
  6
Continuous
100
AcDbLine
 10
110.5
 20
290.75
 30
0.0
 11
110.5
 21
284.75
 31
0.0
  0
LINE
  5
AF
330
1F
100
AcDbEntity
  8
PV
  6
Continuous
100
AcDbLine
 10
60.75
 20
12.25
 30
0.0
 11
60.75
 21
6.25
 31
0.0
  0
LINE
  5
B0
330
1F
100
AcDbEntity
  8
PV
  6
Continuous
100
AcDbLine
 10
359.25
 20
12.25
 30
0.0
 11
359.25
 21
6.25
 31
0.0
  0
LINE
  5
B1
330
1F
100
AcDbEntity
  8
PV
  6
Continuous
100
AcDbLine
 10
409.0
 20
290.75
 30
0.0
 11
415.0
 21
290.75
 31
0.0
  0
LINE
  5
B2
330
1F
100
AcDbEntity
  8
PV
  6
Continuous
100
AcDbLine
 10
409.0
 20
6.25
 30
0.0
 11
415.0
 21
6.25
 31
0.0
  0
LINE
  5
B3
330
1F
100
AcDbEntity
  8
PV
  6
Continuous
100
AcDbLine
 10
5.0
 20
12.25
 30
0.0
 11
5.0
 21
6.25
 31
0.0
  0
LINE
  5
B4
330
1F
100
AcDbEntity
  8
PV
  6
Continuous
100
AcDbLine
 10
415.0
 20
12.25
 30
0.0
 11
415.0
 21
6.25
 31
0.0
  0
LINE
  5
B5
330
1F
100
AcDbEntity
  8
LOGO1
100
AcDbLine
 10
240.1785169772
 20
29.9762040162
 30
0.0
 11
241.8796397487
 21
29.9762040162
 31
0.0
  0
LINE
  5
B6
330
1F
100
AcDbEntity
  8
LOGO1
100
AcDbLine
 10
240.1785169772
 20
26.8141129285
 30
0.0
 11
240.1785169772
 21
29.9762040162
 31
0.0
  0
LINE
  5
B7
330
1F
100
AcDbEntity
  8
SLD-0
100
AcDbLine
 10
373.7475582566
 20
18.2906533893
 30
0.0
 11
409.0
 21
18.2906533893
 31
0.0
  0
LINE
  5
B8
330
1F
100
AcDbEntity
  8
LOGO1
100
AcDbLine
 10
251.1083585583
 20
29.4353756074
 30
0.0
 11
251.1083585583
 21
34.059640952
 31
0.0
  0
LINE
  5
B9
330
1F
100
AcDbEntity
  8
LOGO1
100
AcDbLine
 10
249.973051628
 20
29.4353756074
 30
0.0
 11
249.973051628
 21
34.059640952
 31
0.0
  0
LINE
  5
BA
330
1F
100
AcDbEntity
  8
LOGO1
100
AcDbLine
 10
249.1007545987
 20
27.9447181823
 30
0.0
 11
249.1007545987
 21
29.0908211521
 31
0.0
  0
LINE
  5
BB
330
1F
100
AcDbEntity
  8
LOGO1
100
AcDbLine
 10
248.0603149952
 20
26.4529122423
 30
0.0
 11
248.0603149952
 21
27.600163727
 31
0.0
  0
LINE
  5
BC
330
1F
100
AcDbEntity
  8
SLD-0
 62
     9
100
AcDbLine
 10
353.7475582566
 20
12.25
 30
0.0
 11
353.7475582566
 21
22.2906533893
 31
0.0
  0
LINE
  5
BD
330
1F
100
AcDbEntity
  8
SLD-0
 62
     9
100
AcDbLine
 10
339.1519474197
 20
22.2906533893
 30
0.0
 11
339.1519474197
 21
12.25
 31
0.0
  0
LINE
  5
BE
330
1F
100
AcDbEntity
  8
0
  6
Continuous
 62
     9
370
     0
100
AcDbLine
 10
221.0
 20
76.2906533893
 30
0.0
 11
409.0
 21
76.2906533893
 31
0.0
  0
LINE
  5
BF
330
1F
100
AcDbEntity
  8
SLD-0
100
AcDbLine
 10
373.7475582566
 20
30.2906533893
 30
0.0
 11
409.0
 21
30.2906533893
 31
0.0
  0
LINE
  5
C0
330
1F
100
AcDbEntity
  8
PV
  6
Continuous
100
AcDbLine
 10
409.0
 20
216.625
 30
0.0
 11
415.0
 21
216.625
 31
0.0
  0
LINE
  5
C1
330
1F
100
AcDbEntity
  8
PV
  6
Continuous
100
AcDbLine
 10
409.0
 20
148.5
 30
0.0
 11
415.0
 21
148.5
 31
0.0
  0
LINE
  5
C2
330
1F
100
AcDbEntity
  8
PV
 62
     9
100
AcDbLine
 10
221.0
 20
71.2906533893
 30
0.0
 11
221.0
 21
76.2906533893
 31
0.0
  0
LINE
  5
C3
330
1F
100
AcDbEntity
  8
PV
  6
Continuous
100
AcDbLine
 10
160.25
 20
290.75
 30
0.0
 11
160.25
 21
284.75
 31
0.0
  0
LINE
  5
C4
330
1F
100
AcDbEntity
  8
PV
  6
Continuous
100
AcDbLine
 10
210.0
 20
284.75
 30
0.0
 11
210.0
 21
290.75
 31
0.0
  0
LINE
  5
C5
330
1F
100
AcDbEntity
  8
PV
  6
Continuous
100
AcDbLine
 10
259.75
 20
290.75
 30
0.0
 11
259.75
 21
284.75
 31
0.0
  0
LINE
  5
C6
330
1F
100
AcDbEntity
  8
PV
  6
Continuous
100
AcDbLine
 10
309.5
 20
290.75
 30
0.0
 11
309.5
 21
284.75
 31
0.0
  0
LINE
  5
C7
330
1F
100
AcDbEntity
  8
PV
  6
Continuous
100
AcDbLine
 10
359.25
 20
290.75
 30
0.0
 11
359.25
 21
284.75
 31
0.0
  0
LINE
  5
C8
330
1F
100
AcDbEntity
  8
LOGO1
100
AcDbLine
 10
247.1667704411
 20
24.9599577875
 30
0.0
 11
247.1667704411
 21
26.108357787
 31
0.0
  0
LINE
  5
C9
330
1F
100
AcDbEntity
  8
SLD-0
 62
     9
100
AcDbLine
 10
373.7475582566
 20
26.2906533893
 30
0.0
 11
409.0
 21
26.2906533893
 31
0.0
  0
LINE
  5
CA
330
1F
100
AcDbEntity
  8
SLD-0
 62
     9
100
AcDbLine
 10
353.7475582566
 20
18.8952249746
 30
0.0
 11
261.7475582566
 21
18.8952249746
 31
0.0
  0
LINE
  5
CB
330
1F
100
AcDbEntity
  8
PV
370
     0
100
AcDbLine
 10
261.7475582566
 20
22.2906533893
 30
0.0
 11
373.7475582566
 21
22.2906533893
 31
0.0
  0
LINE
  5
CC
330
1F
100
AcDbEntity
  8
COTATION3
100
AcDbLine
 10
387.001503807
 20
-3.7078428037
 30
0.0
 11
387.5011356673
 21
-3.7078428037
 31
0.0
  0
LINE
  5
CD
330
1F
100
AcDbEntity
  8
PV
100
AcDbLine
 10
373.7475582566
 20
12.25
 30
0.0
 11
373.7475582566
 21
38.2906533893
 31
0.0
  0
LINE
  5
CE
330
1F
100
AcDbEntity
  8
PV
370
    15
100
AcDbLine
 10
261.7475582566
 20
12.25
 30
0.0
 11
261.7475582566
 21
38.2906533893
 31
0.0
  0
LINE
  5
CF
330
1F
100
AcDbEntity
  8
PV
 62
     9
100
AcDbLine
 10
261.7475582566
 20
26.2906533893
 30
0.0
 11
373.7475582566
 21
26.2906533893
 31
0.0
  0
LINE
  5
D0
330
1F
100
AcDbEntity
  8
PV
 62
     9
100
AcDbLine
 10
261.7475582566
 20
30.2906533893
 30
0.0
 11
373.7475582566
 21
30.2906533893
 31
0.0
  0
LINE
  5
D1
330
1F
100
AcDbEntity
  8
PV
 62
     9
100
AcDbLine
 10
388.7056031756
 20
18.2906533893
 30
0.0
 11
388.7056031756
 21
30.2906533893
 31
0.0
  0
LINE
  5
D2
330
1F
100
AcDbEntity
  8
PV
 62
     9
100
AcDbLine
 10
261.7475582566
 20
34.2906533893
 30
0.0
 11
409.0
 21
34.2906533893
 31
0.0
  0
LINE
  5
D3
330
1F
100
AcDbEntity
  8
PV
 62
     9
100
AcDbLine
 10
315.9891629148
 20
26.2906533893
 30
0.0
 11
315.9891629148
 21
22.2906533893
 31
0.0
  0
LINE
  5
D4
330
1F
100
AcDbEntity
  8
PV
370
    15
100
AcDbLine
 10
221.0
 20
38.2906533893
 30
0.0
 11
409.0
 21
38.2906533893
 31
0.0
  0
LINE
  5
D5
330
1F
100
AcDbEntity
  8
PV
 62
     9
100
AcDbLine
 10
221.0
 20
42.2906533893
 30
0.0
 11
409.0
 21
42.2906533893
 31
0.0
  0
LINE
  5
D6
330
1F
100
AcDbEntity
  8
PV
 62
     9
100
AcDbLine
 10
221.0
 20
46.2906533893
 30
0.0
 11
409.0
 21
46.2906533893
 31
0.0
  0
LINE
  5
D7
330
1F
100
AcDbEntity
  8
PV
 62
     9
100
AcDbLine
 10
221.0
 20
50.2906533893
 30
0.0
 11
409.0
 21
50.2906533893
 31
0.0
  0
LINE
  5
D8
330
1F
100
AcDbEntity
  8
PV
 62
     9
100
AcDbLine
 10
221.0
 20
54.2906533893
 30
0.0
 11
409.0
 21
54.2906533893
 31
0.0
  0
LINE
  5
D9
330
1F
100
AcDbEntity
  8
PV
 62
     9
100
AcDbLine
 10
221.0
 20
58.2906533893
 30
0.0
 11
409.0
 21
58.2906533893
 31
0.0
  0
LINE
  5
DA
330
1F
100
AcDbEntity
  8
PV
 62
     9
100
AcDbLine
 10
221.0
 20
62.2906533893
 30
0.0
 11
409.0
 21
62.2906533893
 31
0.0
  0
LINE
  5
DB
330
1F
100
AcDbEntity
  8
PV
370
    15
100
AcDbLine
 10
221.0
 20
71.2906533893
 30
0.0
 11
221.0
 21
12.2704007736
 31
0.0
  0
LINE
  5
DC
330
1F
100
AcDbEntity
  8
PV
370
    15
100
AcDbLine
 10
221.0
 20
66.7906533893
 30
0.0
 11
409.0
 21
66.7906533893
 31
0.0
  0
LINE
  5
DD
330
1F
100
AcDbEntity
  8
PV
370
    15
100
AcDbLine
 10
221.0
 20
71.2906533893
 30
0.0
 11
409.0
 21
71.2906533893
 31
0.0
  0
LINE
  5
DE
330
1F
100
AcDbEntity
  8
PV
 62
     9
100
AcDbLine
 10
237.6477507152
 20
62.2906533893
 30
0.0
 11
237.6477507152
 21
38.2906533893
 31
0.0
  0
LINE
  5
DF
330
1F
100
AcDbEntity
  8
PV
 62
     9
100
AcDbLine
 10
247.6106668885
 20
62.2906533893
 30
0.0
 11
247.6106668885
 21
38.2906533893
 31
0.0
  0
LINE
  5
E0
330
1F
100
AcDbEntity
  8
PV
 62
     9
100
AcDbLine
 10
397.6555514975
 20
62.2906533893
 30
0.0
 11
397.6555514975
 21
38.2906533893
 31
0.0
  0
LINE
  5
E1
330
1F
100
AcDbEntity
  8
PV
 62
     9
100
AcDbLine
 10
386.6555514975
 20
62.2906533893
 30
0.0
 11
386.6555514975
 21
38.2906533893
 31
0.0
  0
LINE
  5
E2
330
1F
100
AcDbEntity
  8
LOGO1
100
AcDbLine
 10
238.8288971773
 20
24.9599577875
 30
0.0
 11
247.1667704411
 21
24.9599577875
 31
0.0
  0
LINE
  5
E3
330
1F
100
AcDbEntity
  8
LOGO1
100
AcDbLine
 10
249.445309054
 20
29.4353756074
 30
0.0
 11
249.973051628
 21
29.4353756074
 31
0.0
  0
LINE
  5
E4
330
1F
100
AcDbEntity
  8
LOGO1
100
AcDbLine
 10
248.4048694505
 20
27.9447181823
 30
0.0
 11
249.1007545987
 21
27.9447181823
 31
0.0
  0
LINE
  5
E5
330
1F
100
AcDbEntity
  8
LOGO1
100
AcDbLine
 10
247.5113248964
 20
26.4529122423
 30
0.0
 11
248.0603149952
 21
26.4529122423
 31
0.0
  0
LINE
  5
E6
330
1F
100
AcDbEntity
  8
LOGO1
 62
   151
100
AcDbLine
 10
251.2549090532
 20
29.3393597659
 30
0.0
 11
251.3103823205
 21
29.4353756074
 31
0.0
  0
LINE
  5
E7
330
1F
100
AcDbEntity
  8
COTATION3
100
AcDbLine
 10
387.5011356673
 20
-3.7078428037
 30
0.0
 11
387.001503807
 21
-3.7078428037
 31
0.0
  0
ARC
  5
E8
330
1F
100
AcDbEntity
  8
LOGO1
100
AcDbCircle
 10
228.0462954213
 20
30.5364567951
 30
0.0
 40
1.249928906540212
100
AcDbArc
 50
180.0115505333
 51
0.0
  0
ARC
  5
E9
330
1F
100
AcDbEntity
  8
LOGO1
100
AcDbCircle
 10
253.5698555869
 20
26.108357787
 30
0.0
 40
0.3445544553000275
100
AcDbArc
 50
0.0
 51
90.0
  0
ARC
  5
EA
330
1F
100
AcDbEntity
  8
LOGO1
100
AcDbCircle
 10
252.6766555873
 20
27.600163727
 30
0.0
 40
0.3445544553000275
100
AcDbArc
 50
0.0
 51
90.0
  0
ARC
  5
EB
330
1F
100
AcDbEntity
  8
LOGO1
100
AcDbCircle
 10
251.6361011323
 20
29.0908211521
 30
0.0
 40
0.3445544553000275
100
AcDbArc
 50
0.0
 51
90.0
  0
ARC
  5
EC
330
1F
100
AcDbEntity
  8
LOGO1
100
AcDbCircle
 10
249.445309054
 20
29.0908211521
 30
0.0
 40
0.3445544552999991
100
AcDbArc
 50
90.0
 51
180.0
  0
ARC
  5
ED
330
1F
100
AcDbEntity
  8
LOGO1
100
AcDbCircle
 10
248.4048694505
 20
27.600163727
 30
0.0
 40
0.3445544552999991
100
AcDbArc
 50
90.0
 51
180.0
  0
ARC
  5
EE
330
1F
100
AcDbEntity
  8
LOGO1
100
AcDbCircle
 10
247.5113248964
 20
26.108357787
 30
0.0
 40
0.3445544552999991
100
AcDbArc
 50
90.0
 51
180.0
  0
ARC
  5
EF
330
1F
100
AcDbEntity
  8
LOGO1
100
AcDbCircle
 10
250.5407050931
 20
34.059640952
 30
0.0
 40
0.5676534651067868
100
AcDbArc
 50
0.0
 51
180.0
  0
ARC
  5
F0
330
1F
100
AcDbEntity
  8
LOGO1
100
AcDbCircle
 10
244.7285882609
 20
35.6647482783
 30
0.0
 40
0.9434479206069639
100
AcDbArc
 50
270.0
 51
89.9876903601
  0
ARC
  5
F1
330
1F
100
AcDbEntity
  8
LOGO1
100
AcDbCircle
 10
241.8796397487
 20
30.9655390438
 30
0.0
 40
0.9893350275721563
100
AcDbArc
 50
270.0
 51
89.969106545
  0
ARC
  5
F2
330
1F
100
AcDbEntity
  8
LOGO1
100
AcDbCircle
 10
227.9438893796
 20
35.4571384912
 30
0.0
 40
1.148514851000051
100
AcDbArc
 50
90.0336090389
 51
180.0115505333
  0
ARC
  5
F3
330
1F
100
AcDbEntity
  8
LOGO1
100
AcDbCircle
 10
227.9312140136
 20
26.1108845197
 30
0.0
 40
1.148514851000007
100
AcDbArc
 50
180.0
 51
270.0351459459
  0
ARC
  5
F4
330
1F
100
AcDbEntity
  8
LOGO1
100
AcDbCircle
 10
238.8288971773
 20
35.4609488549
 30
0.0
 40
1.148514851000004
100
AcDbArc
 50
89.9876903601
 51
180.0
  0
ARC
  5
F5
330
1F
100
AcDbEntity
  8
LOGO1
100
AcDbCircle
 10
238.8288971773
 20
26.1084726385
 30
0.0
 40
1.148514850999987
100
AcDbArc
 50
180.0
 51
270.0
  0
ARC
  5
F6
330
1F
100
AcDbEntity
  8
LOGO1
100
AcDbCircle
 10
255.10831456
 20
26.1074317406
 30
0.0
 40
1.148514850999991
100
AcDbArc
 50
270.0
 51
23.7709783333
  0
SPLINE
  5
F7
330
1F
100
AcDbEntity
  8
LOGO1
 62
   228
100
AcDbSpline
210
0.0
220
0.0
230
1.0
 70
     8
 71
     3
 72
     8
 73
     4
 74
     0
 42
0.00000001
 43
0.00000001
 40
0.0
 40
0.0
 40
0.0
 40
0.0
 40
0.0227272727272727
 40
0.0227272727272727
 40
0.0227272727272727
 40
0.0227272727272727
 10
236.4245961882204
 20
29.98907461708545
 30
0.0
 10
236.0200892576982
 20
30.47811224064123
 30
0.0
 10
235.4043704460771
 20
30.84781917117813
 30
0.0
 10
234.573879357319
 20
31.09647263641963
 30
0.0
  0
SPLINE
  5
F8
330
1F
100
AcDbEntity
  8
LOGO1
 62
   228
100
AcDbSpline
210
0.0
220
0.0
230
1.0
 70
     8
 71
     3
 72
     8
 73
     4
 74
     0
 42
0.00000001
 43
0.00000001
 40
0.0227272727272727
 40
0.0227272727272727
 40
0.0227272727272727
 40
0.0227272727272727
 40
0.0454545454545455
 40
0.0454545454545455
 40
0.0454545454545455
 40
0.0454545454545455
 10
234.573879357319
 20
31.09647263641963
 30
0.0
 10
235.8069249013526
 20
31.63615976490453
 30
0.0
 10
236.4232179703992
 20
32.48893204177206
 30
0.0
 10
236.4232179703992
 20
33.65421520959666
 30
0.0
  0
SPLINE
  5
F9
330
1F
100
AcDbEntity
  8
LOGO1
 62
   228
100
AcDbSpline
210
0.0
220
0.0
230
1.0
 70
     8
 71
     3
 72
     8
 73
     4
 74
     0
 42
0.00000001
 43
0.00000001
 40
0.0454545454545455
 40
0.0454545454545455
 40
0.0454545454545455
 40
0.0454545454545455
 40
0.0681818181818182
 40
0.0681818181818182
 40
0.0681818181818182
 40
0.0681818181818182
 10
236.4232179703992
 20
33.65421520959666
 30
0.0
 10
236.4232179703992
 20
33.99279738767147
 30
0.0
 10
236.3648734159684
 20
34.31495580337695
 30
0.0
 10
236.2465763863154
 20
34.61954194186212
 30
0.0
  0
SPLINE
  5
FA
330
1F
100
AcDbEntity
  8
LOGO1
 62
   228
100
AcDbSpline
210
0.0
220
0.0
230
1.0
 70
     8
 71
     3
 72
     8
 73
     4
 74
     0
 42
0.00000001
 43
0.00000001
 40
0.0681818181818182
 40
0.0681818181818182
 40
0.0681818181818182
 40
0.0681818181818182
 40
0.0909090909090909
 40
0.0909090909090909
 40
0.0909090909090909
 40
0.0909090909090909
 10
236.2465763863154
 20
34.61954194186212
 30
0.0
 10
236.1285090596326
 20
34.92378352589204
 30
0.0
 10
235.9582991587144
 20
35.20137956537878
 30
0.0
 10
235.7334199508886
 20
35.45393798111363
 30
0.0
  0
SPLINE
  5
FB
330
1F
100
AcDbEntity
  8
LOGO1
 62
   228
100
AcDbSpline
210
0.0
220
0.0
230
1.0
 70
     8
 71
     3
 72
     8
 73
     4
 74
     0
 42
0.00000001
 43
0.00000001
 40
0.0909090909090909
 40
0.0909090909090909
 40
0.0909090909090909
 40
0.0909090909090909
 40
0.1136363636363637
 40
0.1136363636363637
 40
0.1136363636363637
 40
0.1136363636363637
 10
235.7334199508886
 20
35.45393798111363
 30
0.0
 10
235.5090001490032
 20
35.70488847605713
 30
0.0
 10
235.251503119409
 20
35.91299936705833
 30
0.0
 10
234.9608140106209
 20
36.07700728778113
 30
0.0
  0
SPLINE
  5
FC
330
1F
100
AcDbEntity
  8
LOGO1
 62
   228
100
AcDbSpline
210
0.0
220
0.0
230
1.0
 70
     8
 71
     3
 72
     8
 73
     4
 74
     0
 42
0.00000001
 43
0.00000001
 40
0.1136363636363637
 40
0.1136363636363637
 40
0.1136363636363637
 40
0.1136363636363637
 40
0.1363636363636364
 40
0.1363636363636364
 40
0.1363636363636364
 40
0.1363636363636364
 10
234.9608140106209
 20
36.07700728778113
 30
0.0
 10
234.6189011394782
 20
36.27110629760016
 30
0.0
 10
234.2340338129081
 20
36.40295580249492
 30
0.0
 10
233.8026516348725
 20
36.4711775846443
 30
0.0
  0
SPLINE
  5
FD
330
1F
100
AcDbEntity
  8
LOGO1
 62
   228
100
AcDbSpline
210
0.0
220
0.0
230
1.0
 70
     8
 71
     3
 72
     8
 73
     4
 74
     0
 42
0.00000001
 43
0.00000001
 40
0.1363636363636364
 40
0.1363636363636364
 40
0.1363636363636364
 40
0.1363636363636364
 40
0.1590909090909091
 40
0.1590909090909091
 40
0.1590909090909091
 40
0.1590909090909091
 10
233.8026516348725
 20
36.4711775846443
 30
0.0
 10
233.3731070805985
 20
36.53928451530864
 30
0.0
 10
232.86374074418
 20
36.60819540636867
 30
0.0
 10
232.2771942097743
 20
36.60819540636867
 30
0.0
  0
SPLINE
  5
FE
330
1F
100
AcDbEntity
  8
LOGO1
 62
   228
100
AcDbSpline
210
0.0
220
0.0
230
1.0
 70
     8
 71
     3
 72
     8
 73
     4
 74
     0
 42
0.00000001
 43
0.00000001
 40
0.4772727272727271
 40
0.4772727272727271
 40
0.4772727272727271
 40
0.4772727272727271
 40
0.4999999999999998
 40
0.4999999999999998
 40
0.4999999999999998
 40
0.4999999999999998
 10
231.3009565864243
 20
34.74725679329332
 30
0.0
 10
232.2047229226762
 20
34.74725679329338
 30
0.0
 10
232.8777526253621
 20
34.71831421904814
 30
0.0
 10
233.3183229222058
 20
34.52352610031856
 30
0.0
  0
SPLINE
  5
FF
330
1F
100
AcDbEntity
  8
LOGO1
 62
   228
100
AcDbSpline
210
0.0
220
0.0
230
1.0
 70
     8
 71
     3
 72
     8
 73
     4
 74
     0
 42
0.00000001
 43
0.00000001
 40
0.4999999999999998
 40
0.4999999999999998
 40
0.4999999999999998
 40
0.4999999999999998
 40
0.5227272727272726
 40
0.5227272727272726
 40
0.5227272727272726
 40
0.5227272727272726
 10
233.3183229222058
 20
34.52352610031856
 30
0.0
 10
233.7592377735047
 20
34.32850827861872
 30
0.0
 10
233.9799823278669
 20
33.93606075403205
 30
0.0
 10
233.9799823278669
 20
33.34434590279683
 30
0.0
  0
SPLINE
  5
100
330
1F
100
AcDbEntity
  8
LOGO1
 62
   228
100
AcDbSpline
210
0.0
220
0.0
230
1.0
 70
     8
 71
     3
 72
     8
 73
     4
 74
     0
 42
0.00000001
 43
0.00000001
 40
0.5227272727272726
 40
0.5227272727272726
 40
0.5227272727272726
 40
0.5227272727272726
 40
0.5454545454545453
 40
0.5454545454545453
 40
0.5454545454545453
 40
0.5454545454545453
 10
233.9799823278669
 20
33.34434590279683
 30
0.0
 10
233.9799823278669
 20
33.06720926925055
 30
0.0
 10
233.90888925859
 20
32.81660332876235
 30
0.0
 10
233.7698041101339
 20
32.59241322984712
 30
0.0
  0
SPLINE
  5
101
330
1F
100
AcDbEntity
  8
LOGO1
 62
   228
100
AcDbSpline
210
0.0
220
0.0
230
1.0
 70
     8
 71
     3
 72
     8
 73
     4
 74
     0
 42
0.00000001
 43
0.00000001
 40
0.5454545454545453
 40
0.5454545454545453
 40
0.5454545454545453
 40
0.5454545454545453
 40
0.568181818181818
 40
0.568181818181818
 40
0.568181818181818
 40
0.568181818181818
 10
233.7698041101339
 20
32.59241322984712
 30
0.0
 10
233.5910951993183
 20
32.27737560621785
 30
0.0
 10
233.3319902489327
 20
32.06455580432754
 30
0.0
 10
232.9962793579854
 20
31.95326471526566
 30
0.0
  0
SPLINE
  5
102
330
1F
100
AcDbEntity
  8
LOGO1
 62
   228
100
AcDbSpline
210
0.0
220
0.0
230
1.0
 70
     8
 71
     3
 72
     8
 73
     4
 74
     0
 42
0.00000001
 43
0.00000001
 40
0.568181818181818
 40
0.568181818181818
 40
0.568181818181818
 40
0.568181818181818
 40
0.5909090909090907
 40
0.5909090909090907
 40
0.5909090909090907
 40
0.5909090909090907
 10
232.9962793579854
 20
31.95326471526566
 30
0.0
 10
232.9344892590016
 20
31.93270629943273
 30
0.0
 10
232.8681051006138
 20
31.91421521033167
 30
0.0
 10
232.7968971798518
 20
31.89710233905174
 30
0.0
  0
SPLINE
  5
103
330
1F
100
AcDbEntity
  8
LOGO1
 62
   228
100
AcDbSpline
210
0.0
220
0.0
230
1.0
 70
     8
 71
     3
 72
     8
 73
     4
 74
     0
 42
0.00000001
 43
0.00000001
 40
0.6136363636363634
 40
0.6136363636363634
 40
0.6136363636363634
 40
0.6136363636363634
 40
0.6363636363636361
 40
0.6363636363636361
 40
0.6363636363636361
 40
0.6363636363636361
 10
232.7968971798518
 20
31.89113006182653
 30
0.0
 10
232.4165090612006
 20
31.76938748762054
 30
0.0
 10
232.1383387642884
 20
31.40990233925756
 30
0.0
 10
232.1383387642884
 20
30.97920927013254
 30
0.0
  0
SPLINE
  5
104
330
1F
100
AcDbEntity
  8
LOGO1
 62
   228
100
AcDbSpline
210
0.0
220
0.0
230
1.0
 70
     8
 71
     3
 72
     8
 73
     4
 74
     0
 42
0.00000001
 43
0.00000001
 40
0.6363636363636361
 40
0.6363636363636361
 40
0.6363636363636361
 40
0.6363636363636361
 40
0.6590909090909088
 40
0.6590909090909088
 40
0.6590909090909088
 40
0.6590909090909088
 10
232.1383387642884
 20
30.97920927013254
 30
0.0
 10
232.1383387642884
 20
30.54863105249261
 30
0.0
 10
232.4165090612006
 20
30.18857164670413
 30
0.0
 10
232.7968971798518
 20
30.06625481507264
 30
0.0
  0
SPLINE
  5
105
330
1F
100
AcDbEntity
  8
LOGO1
 62
   228
100
AcDbSpline
210
0.0
220
0.0
230
1.0
 70
     8
 71
     2
 72
     6
 73
     3
 74
     0
 42
0.00000001
 43
0.00000001
 40
0.6590909090909088
 40
0.6590909090909088
 40
0.6590909090909088
 40
0.6818181818181815
 40
0.6818181818181815
 40
0.6818181818181815
 10
232.7968971798518
 20
30.06625481507264
 30
0.0
 10
232.8342239125093
 20
30.05385085468182
 30
0.0
 10
232.8891229223871
 20
30.03742709231255
 30
0.0
  0
SPLINE
  5
106
330
1F
100
AcDbEntity
  8
LOGO1
 62
   228
100
AcDbSpline
210
0.0
220
0.0
230
1.0
 70
     8
 71
     3
 72
     8
 73
     4
 74
     0
 42
0.00000001
 43
0.00000001
 40
0.6818181818181815
 40
0.6818181818181815
 40
0.6818181818181815
 40
0.6818181818181815
 40
0.7045454545454543
 40
0.7045454545454543
 40
0.7045454545454543
 40
0.7045454545454543
 10
232.8891229223871
 20
30.03742709231255
 30
0.0
 10
233.2649169816343
 20
29.97242115174592
 30
0.0
 10
233.5771981696212
 20
29.86825085476025
 30
0.0
 10
233.8197645061524
 20
29.72066669640672
 30
0.0
  0
SPLINE
  5
107
330
1F
100
AcDbEntity
  8
LOGO1
 62
   228
100
AcDbSpline
210
0.0
220
0.0
230
1.0
 70
     8
 71
     3
 72
     8
 73
     4
 74
     0
 42
0.00000001
 43
0.00000001
 40
0.7045454545454543
 40
0.7045454545454543
 40
0.7045454545454543
 40
0.7045454545454543
 40
0.727272727272727
 40
0.727272727272727
 40
0.727272727272727
 40
0.727272727272727
 10
233.8197645061524
 20
29.72066669640672
 30
0.0
 10
234.2551664861665
 20
29.45616372622145
 30
0.0
 10
234.4725803474608
 20
29.14985481545973
 30
0.0
 10
234.4725803474608
 20
28.56319342956898
 30
0.0
  0
SPLINE
  5
108
330
1F
100
AcDbEntity
  8
LOGO1
 62
   228
100
AcDbSpline
210
0.0
220
0.0
230
1.0
 70
     8
 71
     3
 72
     8
 73
     4
 74
     0
 42
0.00000001
 43
0.00000001
 40
0.727272727272727
 40
0.727272727272727
 40
0.727272727272727
 40
0.727272727272727
 40
0.7499999999999997
 40
0.7499999999999997
 40
0.7499999999999997
 40
0.7499999999999997
 10
234.4725803474608
 20
28.56319342956898
 30
0.0
 10
234.4725803474608
 20
27.41525283599444
 30
0.0
 10
233.6329011398946
 20
26.84191422237525
 30
0.0
 10
231.9545763881284
 20
26.84191422237525
 30
0.0
  0
SPLINE
  5
109
330
1F
100
AcDbEntity
  8
LOGO1
 62
   228
100
AcDbSpline
210
0.0
220
0.0
230
1.0
 70
     8
 71
     3
 72
     8
 73
     4
 74
     0
 42
0.00000001
 43
0.00000001
 40
0.954545454545454
 40
0.954545454545454
 40
0.954545454545454
 40
0.954545454545454
 40
0.9772727272727267
 40
0.9772727272727267
 40
0.9772727272727267
 40
0.9772727272727267
 10
232.0507070811571
 20
24.96489640138594
 30
0.0
 10
232.3830872790365
 20
24.96489640138594
 30
0.0
 10
232.6935308432618
 20
24.97305085682805
 30
0.0
 10
232.9834159916542
 20
24.98844095583141
 30
0.0
  0
SPLINE
  5
10A
330
1F
100
AcDbEntity
  8
LOGO1
 62
   228
100
AcDbSpline
210
0.0
220
0.0
230
1.0
 70
     8
 71
     3
 72
     8
 73
     4
 74
     0
 42
0.00000001
 43
0.00000001
 40
0.0769230769230769
 40
0.0769230769230769
 40
0.0769230769230769
 40
0.0769230769230769
 40
0.1153846153846154
 40
0.1153846153846154
 40
0.1153846153846154
 40
0.1153846153846154
 10
252.2806476651076
 20
35.376750548612
 30
0.0
 10
252.1831387542578
 20
35.59760995445932
 30
0.0
 10
252.0630041008432
 20
35.80342381575852
 30
0.0
 10
251.9210476652596
 20
35.9959149047861
 30
0.0
  0
SPLINE
  5
10B
330
1F
100
AcDbEntity
  8
LOGO1
 62
   228
100
AcDbSpline
210
0.0
220
0.0
230
1.0
 70
     8
 71
     3
 72
     8
 73
     4
 74
     0
 42
0.00000001
 43
0.00000001
 40
0.1153846153846154
 40
0.1153846153846154
 40
0.1153846153846154
 40
0.1153846153846154
 40
0.1538461538461539
 40
0.1538461538461539
 40
0.1538461538461539
 40
0.1538461538461539
 10
251.9210476652596
 20
35.9959149047861
 30
0.0
 10
251.7775981603696
 20
36.18771688490313
 30
0.0
 10
251.5907347941119
 20
36.34448916206462
 30
0.0
 10
251.3580456852993
 20
36.46680599369611
 30
0.0
  0
SPLINE
  5
10C
330
1F
100
AcDbEntity
  8
LOGO1
 62
   228
100
AcDbSpline
210
0.0
220
0.0
230
1.0
 70
     8
 71
     3
 72
     8
 73
     4
 74
     0
 42
0.00000001
 43
0.00000001
 40
0.1538461538461539
 40
0.1538461538461539
 40
0.1538461538461539
 40
0.1538461538461539
 40
0.1923076923076923
 40
0.1923076923076923
 40
0.1923076923076923
 40
0.1923076923076923
 10
251.3580456852993
 20
36.46680599369611
 30
0.0
 10
251.1258159824272
 20
36.58820401344681
 30
0.0
 10
250.8366199429454
 20
36.64919015203488
 30
0.0
 10
250.4906872698242
 20
36.64919015203488
 30
0.0
  0
SPLINE
  5
10D
330
1F
100
AcDbEntity
  8
LOGO1
 62
   228
100
AcDbSpline
210
0.0
220
0.0
230
1.0
 70
     8
 71
     3
 72
     8
 73
     4
 74
     0
 42
0.00000001
 43
0.00000001
 40
0.1923076923076923
 40
0.1923076923076923
 40
0.1923076923076923
 40
0.1923076923076923
 40
0.2307692307692308
 40
0.2307692307692308
 40
0.2307692307692308
 40
0.2307692307692308
 10
250.4906872698242
 20
36.64919015203488
 30
0.0
 10
250.1499229135325
 20
36.64919015203488
 30
0.0
 10
249.8639427156334
 20
36.58820401344681
 30
0.0
 10
249.6311387553358
 20
36.46680599369611
 30
0.0
  0
SPLINE
  5
10E
330
1F
100
AcDbEntity
  8
LOGO1
 62
   228
100
AcDbSpline
210
0.0
220
0.0
230
1.0
 70
     8
 71
     3
 72
     8
 73
     4
 74
     0
 42
0.00000001
 43
0.00000001
 40
0.2307692307692308
 40
0.2307692307692308
 40
0.2307692307692308
 40
0.2307692307692308
 40
0.2692307692307693
 40
0.2692307692307693
 40
0.2692307692307693
 40
0.2692307692307693
 10
249.6311387553358
 20
36.46680599369611
 30
0.0
 10
249.3984496465231
 20
36.34448916206462
 30
0.0
 10
249.2118159832356
 20
36.18369708292457
 30
0.0
 10
249.0696298446818
 20
35.98741589488868
 30
0.0
  0
SPLINE
  5
10F
330
1F
100
AcDbEntity
  8
LOGO1
 62
   228
100
AcDbSpline
210
0.0
220
0.0
230
1.0
 70
     8
 71
     3
 72
     8
 73
     4
 74
     0
 42
0.00000001
 43
0.00000001
 40
0.2692307692307693
 40
0.2692307692307693
 40
0.2692307692307693
 40
0.2692307692307693
 40
0.3076923076923077
 40
0.3076923076923077
 40
0.3076923076923077
 40
0.3076923076923077
 10
249.0696298446818
 20
35.98741589488868
 30
0.0
 10
248.9267545972175
 20
35.79067530091239
 30
0.0
 10
248.7922635081654
 20
35.54340005349209
 30
0.0
 10
248.667764498317
 20
35.24501589520228
 30
0.0
  0
SPLINE
  5
110
330
1F
100
AcDbEntity
  8
LOGO1
 62
   150
100
AcDbSpline
210
0.0
220
0.0
230
1.0
 70
     8
 71
     3
 72
     8
 73
     4
 74
     0
 42
0.00000001
 43
0.00000001
 40
0.4
 40
0.4
 40
0.4
 40
0.4
 40
0.6000000000000001
 40
0.6000000000000001
 40
0.6000000000000001
 40
0.6000000000000001
 10
236.4245961882204
 20
29.98907461708545
 30
0.0
 10
236.7547942078829
 20
29.58985085487786
 30
0.0
 10
236.9445288612681
 20
29.11046075607043
 30
0.0
 10
236.9916179701591
 20
28.55078946917817
 30
0.0
  0
SPLINE
  5
111
330
1F
100
AcDbEntity
  8
LOGO1
 62
   228
100
AcDbSpline
210
0.0
220
0.0
230
1.0
 70
     8
 71
     3
 72
     8
 73
     4
 74
     0
 42
0.00000001
 43
0.00000001
 40
0.0
 40
0.0
 40
0.0
 40
0.0
 40
0.1666666666666667
 40
0.1666666666666667
 40
0.1666666666666667
 40
0.1666666666666667
 10
235.0450001491992
 20
25.36676174775082
 30
0.0
 10
235.6441803469659
 20
25.61415184665622
 30
0.0
 10
236.1195506437948
 20
25.99695184649453
 30
0.0
 10
236.4736377723581
 20
26.51653996508696
 30
0.0
  0
SPLINE
  5
112
330
1F
100
AcDbEntity
  8
LOGO1
 62
   228
100
AcDbSpline
210
0.0
220
0.0
230
1.0
 70
     8
 71
     3
 72
     8
 73
     4
 74
     0
 42
0.00000001
 43
0.00000001
 40
0.1666666666666667
 40
0.1666666666666667
 40
0.1666666666666667
 40
0.1666666666666667
 40
0.3333333333333333
 40
0.3333333333333333
 40
0.3333333333333333
 40
0.3333333333333333
 10
236.4736377723581
 20
26.51653996508696
 30
0.0
 10
236.8265763860703
 20
27.03555382625383
 30
0.0
 10
237.0031031186691
 20
27.61911422204694
 30
0.0
 10
237.0031031186691
 20
28.26710630098112
 30
0.0
  0
SPLINE
  5
113
330
1F
100
AcDbEntity
  8
LOGO1
 62
   228
100
AcDbSpline
210
0.0
220
0.0
230
1.0
 70
     8
 71
     3
 72
     8
 73
     4
 74
     0
 42
0.00000001
 43
0.00000001
 40
0.6666666666666666
 40
0.6666666666666666
 40
0.6666666666666666
 40
0.6666666666666666
 40
0.8333333333333333
 40
0.8333333333333333
 40
0.8333333333333333
 40
0.8333333333333333
 10
232.9834159916542
 20
24.98844095583141
 30
0.0
 10
233.2590595558942
 20
25.00325679740934
 30
0.0
 10
233.5159823280629
 20
25.02530828254856
 30
0.0
 10
233.7529209418242
 20
25.05482511421925
 30
0.0
  0
SPLINE
  5
114
330
1F
100
AcDbEntity
  8
LOGO1
 62
   228
100
AcDbSpline
210
0.0
220
0.0
230
1.0
 70
     8
 71
     3
 72
     8
 73
     4
 74
     0
 42
0.00000001
 43
0.00000001
 40
0.8333333333333333
 40
0.8333333333333333
 40
0.8333333333333333
 40
0.8333333333333333
 40
1.0
 40
1.0
 40
1.0
 40
1.0
 10
233.7529209418242
 20
25.05482511421925
 30
0.0
 10
234.2398912386482
 20
25.11581125280738
 30
0.0
 10
234.6700100503477
 20
25.21917758939735
 30
0.0
 10
235.0450001491992
 20
25.36676174775082
 30
0.0
  0
ELLIPSE
  5
115
330
1F
100
AcDbEntity
  8
LOGO2
100
AcDbEllipse
 10
242.5029842637
 20
28.0678433671
 30
0.0
 11
-9.281964393266776
 21
-5.518954020724276
 31
0.0
210
0.0
220
0.0
230
1.0
 40
0.4790317882
 41
5.840044660114027
 42
8.726334306476229
  0
ELLIPSE
  5
116
330
1F
100
AcDbEntity
  8
LOGO2
100
AcDbEllipse
 10
242.5029842637
 20
28.0678433671
 30
0.0
 11
-9.281964393266776
 21
-5.518954020724276
 31
0.0
210
0.0
220
0.0
230
1.0
 40
0.4790317882
 41
4.958154129815593
 42
5.11614622350664
  0
ELLIPSE
  5
117
330
1F
100
AcDbEntity
  8
LOGO2
100
AcDbEllipse
 10
242.5029842637
 20
28.0678433671
 30
0.0
 11
-9.281964393266776
 21
-5.518954020724276
 31
0.0
210
0.0
220
0.0
230
1.0
 40
0.4790317882
 41
3.748252181811127
 42
4.67835827302119
  0
ELLIPSE
  5
118
330
1F
100
AcDbEntity
  8
SLD-0
100
AcDbEllipse
 10
242.5029842637
 20
28.0678433671
 30
0.0
 11
-9.281964393266776
 21
-5.518954020724276
 31
0.0
210
0.0
220
0.0
230
1.0
 40
0.4790317882
 41
3.365945528146931
 42
3.425750292756564
  0
INSERT
  5
119
330
1F
100
AcDbEntity
  8
0
  6
Continuous
 62
     6
100
AcDbBlockReference
  2
Bloc2
 10
354.8047549869
 20
14.1813780607
 30
0.0
 41
1.75
 42
1.75
 43
1.75
  0
MTEXT
  5
11B
330
1F
100
AcDbEntity
  8
NOTES
100
AcDbMText
 10
303.1627007761
 20
153.4985775268
 30
0.0
 40
3.5
 41
0.0
 71
     1
 72
     1
  1
\LHoles specifications
  7
SLDTEXTSTYLE0
 73
     1
 44
1.0
  0
MTEXT
  5
11C
330
1F
100
AcDbEntity
  8
PV
100
AcDbMText
 10
6.348821
 20
252.4770147354
 30
0.0
 40
3.5
 41
0.0
 71
     1
 72
     1
  1
4
  7
SLDTEXTSTYLE0
 73
     1
 44
1.0
  0
MTEXT
  5
11D
330
1F
100
AcDbEntity
  8
PV
100
AcDbMText
 10
332.875
 20
11.2083967354
 30
0.0
 40
3.5
 41
0.0
 71
     1
 72
     1
  1
B
  7
SLDTEXTSTYLE0
 73
     1
 44
1.0
  0
MTEXT
  5
11E
330
1F
100
AcDbEntity
  8
PV
100
AcDbMText
 10
410.651179
 20
116.2270147354
 30
0.0
 40
3.5
 41
0.0
 71
     1
 72
     1
  1
2
  7
SLDTEXTSTYLE0
 73
     1
 44
1.0
  0
MTEXT
  5
11F
330
1F
100
AcDbEntity
  8
PV
100
AcDbMText
 10
410.651179
 20
184.3520147354
 30
0.0
 40
3.5
 41
0.0
 71
     1
 72
     1
  1
3
  7
SLDTEXTSTYLE0
 73
     1
 44
1.0
  0
MTEXT
  5
120
330
1F
100
AcDbEntity
  8
PV
100
AcDbMText
 10
410.651179
 20
252.4770147354
 30
0.0
 40
3.5
 41
0.0
 71
     1
 72
     1
  1
4
  7
SLDTEXTSTYLE0
 73
     1
 44
1.0
  0
MTEXT
  5
121
330
1F
100
AcDbEntity
  8
PV
100
AcDbMText
 10
283.125
 20
11.2083967354
 30
0.0
 40
3.5
 41
0.0
 71
     1
 72
     1
  1
C
  7
SLDTEXTSTYLE0
 73
     1
 44
1.0
  0
MTEXT
  5
122
330
1F
100
AcDbEntity
  8
PV
100
AcDbMText
 10
133.875
 20
11.2083967354
 30
0.0
 40
3.5
 41
0.0
 71
     1
 72
     1
  1
F
  7
SLDTEXTSTYLE0
 73
     1
 44
1.0
  0
MTEXT
  5
123
330
1F
100
AcDbEntity
  8
PV
100
AcDbMText
 10
183.625
 20
11.2083967354
 30
0.0
 40
3.5
 41
0.0
 71
     1
 72
     1
  1
E
  7
SLDTEXTSTYLE0
 73
     1
 44
1.0
  0
MTEXT
  5
124
330
1F
100
AcDbEntity
  8
PV
100
AcDbMText
 10
84.125
 20
11.2083967354
 30
0.0
 40
3.5
 41
0.0
 71
     1
 72
     1
  1
G
  7
SLDTEXTSTYLE0
 73
     1
 44
1.0
  0
MTEXT
  5
125
330
1F
100
AcDbEntity
  8
PV
100
AcDbMText
 10
382.625
 20
11.2083967354
 30
0.0
 40
3.5
 41
0.0
 71
     1
 72
     1
  1
A
  7
SLDTEXTSTYLE0
 73
     1
 44
1.0
  0
MTEXT
  5
126
330
1F
100
AcDbEntity
  8
PV
100
AcDbMText
 10
233.375
 20
11.2083967354
 30
0.0
 40
3.5
 41
0.0
 71
     1
 72
     1
  1
D
  7
SLDTEXTSTYLE0
 73
     1
 44
1.0
  0
MTEXT
  5
127
330
1F
100
AcDbEntity
  8
PV
100
AcDbMText
 10
34.375
 20
11.2083967354
 30
0.0
 40
3.5
 41
0.0
 71
     1
 72
     1
  1
H
  7
SLDTEXTSTYLE0
 73
     1
 44
1.0
  0
MTEXT
  5
128
330
1F
100
AcDbEntity
  8
PV
100
AcDbMText
 10
6.348821
 20
184.3520147354
 30
0.0
 40
3.5
 41
0.0
 71
     1
 72
     1
  1
3
  7
SLDTEXTSTYLE0
 73
     1
 44
1.0
  0
MTEXT
  5
129
330
1F
100
AcDbEntity
  8
PV
100
AcDbMText
 10
6.348821
 20
48.1020147354
 30
0.0
 40
3.5
 41
0.0
 71
     1
 72
     1
  1
1
  7
SLDTEXTSTYLE0
 73
     1
 44
1.0
  0
MTEXT
  5
12A
330
1F
100
AcDbEntity
  8
PV
100
AcDbMText
 10
6.348821
 20
116.2270147354
 30
0.0
 40
3.5
 41
0.0
 71
     1
 72
     1
  1
2
  7
SLDTEXTSTYLE0
 73
     1
 44
1.0
  0
MTEXT
  5
12B
330
1F
100
AcDbEntity
  8
PV
100
AcDbMText
 10
34.375
 20
289.3706327354
 30
0.0
 40
3.5
 41
0.0
 71
     1
 72
     1
  1
H
  7
SLDTEXTSTYLE0
 73
     1
 44
1.0
  0
MTEXT
  5
12C
330
1F
100
AcDbEntity
  8
PV
100
AcDbMText
 10
233.375
 20
289.3706327354
 30
0.0
 40
3.5
 41
0.0
 71
     1
 72
     1
  1
D
  7
SLDTEXTSTYLE0
 73
     1
 44
1.0
  0
MTEXT
  5
12D
330
1F
100
AcDbEntity
  8
PV
100
AcDbMText
 10
382.625
 20
289.3706327354
 30
0.0
 40
3.5
 41
0.0
 71
     1
 72
     1
  1
A
  7
SLDTEXTSTYLE0
 73
     1
 44
1.0
  0
MTEXT
  5
12E
330
1F
100
AcDbEntity
  8
PV
100
AcDbMText
 10
84.125
 20
289.3706327354
 30
0.0
 40
3.5
 41
0.0
 71
     1
 72
     1
  1
G
  7
SLDTEXTSTYLE0
 73
     1
 44
1.0
  0
MTEXT
  5
12F
330
1F
100
AcDbEntity
  8
PV
100
AcDbMText
 10
183.625
 20
289.3706327354
 30
0.0
 40
3.5
 41
0.0
 71
     1
 72
     1
  1
E
  7
SLDTEXTSTYLE0
 73
     1
 44
1.0
  0
MTEXT
  5
130
330
1F
100
AcDbEntity
  8
PV
100
AcDbMText
 10
133.875
 20
289.3706327354
 30
0.0
 40
3.5
 41
0.0
 71
     1
 72
     1
  1
F
  7
SLDTEXTSTYLE0
 73
     1
 44
1.0
  0
MTEXT
  5
131
330
1F
100
AcDbEntity
  8
PV
100
AcDbMText
 10
283.125
 20
289.3706327354
 30
0.0
 40
3.5
 41
0.0
 71
     1
 72
     1
  1
C
  7
SLDTEXTSTYLE0
 73
     1
 44
1.0
  0
MTEXT
  5
132
330
1F
100
AcDbEntity
  8
PV
100
AcDbMText
 10
332.875
 20
289.3706327354
 30
0.0
 40
3.5
 41
0.0
 71
     1
 72
     1
  1
B
  7
SLDTEXTSTYLE0
 73
     1
 44
1.0
  0
MTEXT
  5
134
330
1F
100
AcDbEntity
  8
PV
100
AcDbMText
 10
264.5738015861
 20
17.9841358327
 30
0.0
 40
4.4
 41
0.0
 71
     1
 72
     1
  1
41.7782 . 01 . PA . 01
  7
SLDTEXTSTYLE1
 73
     1
 44
1.0
  0
MTEXT
  5
135
330
1F
100
AcDbEntity
  8
PV
100
AcDbMText
 10
390.7745970148
 20
41.4567605458
 30
0.0
 40
2.0
 41
0.0
 71
     1
 72
     1
  1
X
  7
SLDTEXTSTYLE0
 73
     1
 44
1.0
  0
MTEXT
  5
136
330
1F
100
AcDbEntity
  8
PV
100
AcDbMText
 10
390.7351730353
 20
45.4485950517
 30
0.0
 40
2.0
 41
0.0
 71
     1
 72
     1
  1
X
  7
SLDTEXTSTYLE0
 73
     1
 44
1.0
  0
MTEXT
  5
137
330
1F
100
AcDbEntity
  8
PV
100
AcDbMText
 10
390.7351730353
 20
49.3669509187
 30
0.0
 40
2.0
 41
0.0
 71
     1
 72
     1
  1
X
  7
SLDTEXTSTYLE0
 73
     1
 44
1.0
  0
MTEXT
  5
138
330
1F
100
AcDbEntity
  8
PV
100
AcDbMText
 10
390.7351730353
 20
53.4005525466
 30
0.0
 40
2.0
 41
0.0
 71
     1
 72
     1
  1
X 
  7
SLDTEXTSTYLE0
 73
     1
 44
1.0
  0
MTEXT
  5
139
330
1F
100
AcDbEntity
  8
PV
100
AcDbMText
 10
401.9955183353
 20
41.225140539
 30
0.0
 40
2.0
 41
0.0
 71
     1
 72
     1
  1
X
  7
SLDTEXTSTYLE0
 73
     1
 44
1.0
  0
MTEXT
  5
13A
330
1F
100
AcDbEntity
  8
PV
100
AcDbMText
 10
401.9917360528
 20
49.1860547894
 30
0.0
 40
2.0
 41
0.0
 71
     1
 72
     1
  1
X
  7
SLDTEXTSTYLE0
 73
     1
 44
1.0
  0
MTEXT
  5
13B
330
1F
100
AcDbEntity
  8
PV
100
AcDbMText
 10
401.972634601
 20
53.1832722686
 30
0.0
 40
2.0
 41
0.0
 71
     1
 72
     1
  1
X
  7
SLDTEXTSTYLE0
 73
     1
 44
1.0
  0
MTEXT
  5
13C
330
1F
100
AcDbEntity
  8
PV
100
AcDbMText
 10
401.972634601
 20
45.2313147737
 30
0.0
 40
2.0
 41
0.0
 71
     1
 72
     1
  1
X
  7
SLDTEXTSTYLE0
 73
     1
 44
1.0
  0
MTEXT
  5
13D
330
1F
100
AcDbEntity
  8
PV
100
AcDbMText
 10
250.1001532081
 20
41.3545876173
 30
0.0
 40
2.0
 41
0.0
 71
     1
 72
     1
  1
X
  7
SLDTEXTSTYLE0
 73
     1
 44
1.0
  0
MTEXT
  5
13E
330
1F
100
AcDbEntity
  8
PV
100
AcDbMText
 10
250.1001532081
 20
45.3561765338
 30
0.0
 40
2.0
 41
0.0
 71
     1
 72
     1
  1
X
  7
SLDTEXTSTYLE0
 73
     1
 44
1.0
  0
MTEXT
  5
13F
330
1F
100
AcDbEntity
  8
PV
100
AcDbMText
 10
250.1001532081
 20
49.3193501967
 30
0.0
 40
2.0
 41
0.0
 71
     1
 72
     1
  1
X
  7
SLDTEXTSTYLE0
 73
     1
 44
1.0
  0
MTEXT
  5
140
330
1F
100
AcDbEntity
  8
PV
100
AcDbMText
 10
250.1001532081
 20
53.2953289441
 30
0.0
 40
2.0
 41
0.0
 71
     1
 72
     1
  1
X
  7
SLDTEXTSTYLE0
 73
     1
 44
1.0
  0
MTEXT
  5
141
330
1F
100
AcDbEntity
  8
PV
100
AcDbMText
 10
239.7384121833
 20
41.3545876173
 30
0.0
 40
2.0
 41
0.0
 71
     1
 72
     1
  1
X
  7
SLDTEXTSTYLE0
 73
     1
 44
1.0
  0
MTEXT
  5
142
330
1F
100
AcDbEntity
  8
PV
100
AcDbMText
 10
239.7384121833
 20
45.3373538017
 30
0.0
 40
2.0
 41
0.0
 71
     1
 72
     1
  1
X
  7
SLDTEXTSTYLE0
 73
     1
 44
1.0
  0
MTEXT
  5
143
330
1F
100
AcDbEntity
  8
PV
100
AcDbMText
 10
239.7114580188
 20
49.3309414492
 30
0.0
 40
2.0
 41
0.0
 71
     1
 72
     1
  1
X
  7
SLDTEXTSTYLE0
 73
     1
 44
1.0
  0
MTEXT
  5
144
330
1F
100
AcDbEntity
  8
PV
100
AcDbMText
 10
239.7371846747
 20
53.2925163855
 30
0.0
 40
2.0
 41
0.0
 71
     1
 72
     1
  1
X
  7
SLDTEXTSTYLE0
 73
     1
 44
1.0
  0
MTEXT
  5
145
330
1F
100
AcDbEntity
  8
PV
100
AcDbMText
 10
223.3025238872
 20
41.3598370172
 30
0.0
 40
2.0
 41
0.0
 71
     1
 72
     1
  1
X
  7
SLDTEXTSTYLE0
 73
     1
 44
1.0
  0
MTEXT
  5
146
330
1F
100
AcDbEntity
  8
PV
100
AcDbMText
 10
223.3106839328
 20
45.3174663268
 30
0.0
 40
2.0
 41
0.0
 71
     1
 72
     1
  1
X
  7
SLDTEXTSTYLE0
 73
     1
 44
1.0
  0
MTEXT
  5
147
330
1F
100
AcDbEntity
  8
PV
100
AcDbMText
 10
223.3025238872
 20
49.3320399429
 30
0.0
 40
2.0
 41
0.0
 71
     1
 72
     1
  1
X
  7
SLDTEXTSTYLE0
 73
     1
 44
1.0
  0
MTEXT
  5
148
330
1F
100
AcDbEntity
  8
PV
100
AcDbMText
 10
223.3025238872
 20
53.2896692525
 30
0.0
 40
2.0
 41
0.0
 71
     1
 72
     1
  1
X
  7
SLDTEXTSTYLE0
 73
     1
 44
1.0
  0
MTEXT
  5
149
330
1F
100
AcDbEntity
  8
PV
100
AcDbMText
 10
263.3372167646
 20
37.2305109776
 30
0.0
 40
2.2
 41
0.0
 71
     1
 72
     1
  1
PROD. NAME : Magic Switch Casing 
  7
SLDTEXTSTYLE0
 73
     1
 44
1.0
  0
MTEXT
  5
14A
330
1F
100
AcDbEntity
  8
PV
100
AcDbMText
 10
263.3126437655
 20
25.2473412052
 30
0.0
 40
2.0
 41
0.0
 71
     1
 72
     1
  1
MATERIAL: -
  7
SLDTEXTSTYLE0
 73
     1
 44
1.0
  0
MTEXT
  5
14B
330
1F
100
AcDbEntity
  8
PV
100
AcDbMText
 10
390.7351730353
 20
57.3256016259
 30
0.0
 40
2.0
 41
0.0
 71
     1
 72
     1
  1
X
  7
SLDTEXTSTYLE0
 73
     1
 44
1.0
  0
MTEXT
  5
14C
330
1F
100
AcDbEntity
  8
PV
100
AcDbMText
 10
401.972634601
 20
57.3256016259
 30
0.0
 40
2.0
 41
0.0
 71
     1
 72
     1
  1
X
  7
SLDTEXTSTYLE0
 73
     1
 44
1.0
  0
MTEXT
  5
14D
330
1F
100
AcDbEntity
  8
PV
100
AcDbMText
 10
250.3252752916
 20
57.2676325877
 30
0.0
 40
2.0
 41
0.0
 71
     1
 72
     1
  1
X
  7
SLDTEXTSTYLE0
 73
     1
 44
1.0
  0
MTEXT
  5
14E
330
1F
100
AcDbEntity
  8
PV
100
AcDbMText
 10
239.6505604319
 20
56.9013079517
 30
0.0
 40
2.0
 41
0.0
 71
     1
 72
     1
  1
X
  7
SLDTEXTSTYLE0
 73
     1
 44
1.0
  0
MTEXT
  5
14F
330
1F
100
AcDbEntity
  8
PV
100
AcDbMText
 10
222.0842444312
 20
69.8804353895
 30
0.0
 40
2.0
 41
0.0
 71
     1
 72
     1
  1
THIS DRAWING IS THE PROPERTY OF BEA AND MAY NOT BE REPRODUCED WITHOUT WRITTEN AGREEMENT
  7
SLDTEXTSTYLE0
 73
     1
 44
1.0
  0
MTEXT
  5
150
330
1F
100
AcDbEntity
  8
PV
100
AcDbMText
 10
300.1644316903
 20
65.2792821153
 30
0.0
 40
2.2
 41
0.0
 71
     1
 72
     1
  1
MODIFICATIONS LIST
  7
SLDTEXTSTYLE0
 73
     1
 44
1.0
  0
MTEXT
  5
151
330
1F
100
AcDbEntity
  8
PV
100
AcDbMText
 10
399.9469401892
 20
61.3972340847
 30
0.0
 40
2.0
 41
0.0
 71
     1
 72
     1
  1
\LRev :
  7
SLDTEXTSTYLE0
 73
     1
 44
1.0
  0
MTEXT
  5
152
330
1F
100
AcDbEntity
  8
PV
100
AcDbMText
 10
388.7527077653
 20
61.3972340847
 30
0.0
 40
2.0
 41
0.0
 71
     1
 72
     1
  1
\LVer :
  7
SLDTEXTSTYLE0
 73
     1
 44
1.0
  0
MTEXT
  5
153
330
1F
100
AcDbEntity
  8
PV
100
AcDbMText
 10
250.1638407708
 20
61.5514261008
 30
0.0
 40
2.0
 41
0.0
 71
     1
 72
     1
  1
\LDescription :
  7
SLDTEXTSTYLE0
 73
     1
 44
1.0
  0
MTEXT
  5
154
330
1F
100
AcDbEntity
  8
PV
100
AcDbMText
 10
239.9207006797
 20
61.5822102213
 30
0.0
 40
2.0
 41
0.0
 71
     1
 72
     1
  1
\LBy :
  7
SLDTEXTSTYLE0
 73
     1
 44
1.0
  0
MTEXT
  5
155
330
1F
100
AcDbEntity
  8
PV
100
AcDbMText
 10
223.4687214288
 20
57.3037489147
 30
0.0
 40
2.0
 41
0.0
 71
     1
 72
     1
  1
X
  7
SLDTEXTSTYLE0
 73
     1
 44
1.0
  0
MTEXT
  5
156
330
1F
100
AcDbEntity
  8
PV
100
AcDbMText
 10
223.7054739288
 20
61.5280709304
 30
0.0
 40
2.0
 41
0.0
 71
     1
 72
     1
  1
\LDate : 
  7
SLDTEXTSTYLE0
 73
     1
 44
1.0
  0
MTEXT
  5
157
330
1F
100
AcDbEntity
  8
PV
100
AcDbMText
 10
263.3474399787
 20
33.2603144149
 30
0.0
 40
2.2
 41
0.0
 71
     1
 72
     1
  1
TITLE : DIM 
  7
SLDTEXTSTYLE0
 73
     1
 44
1.0
  0
MTEXT
  5
158
330
1F
100
AcDbEntity
  8
PV
100
AcDbMText
 10
327.9989409856
 20
17.9841358327
 30
0.0
 40
4.4
 41
0.0
 71
     1
 72
     1
  1
1:1
  7
SLDTEXTSTYLE0
 73
     1
 44
1.0
  0
MTEXT
  5
159
330
1F
100
AcDbEntity
  8
PV
100
AcDbMText
 10
343.6878606228
 20
21.8200009258
 30
0.0
 40
2.0
 41
0.0
 71
     1
 72
     1
  1
Size
  7
SLDTEXTSTYLE0
 73
     1
 44
1.0
  0
MTEXT
  5
15A
330
1F
100
AcDbEntity
  8
PV
100
AcDbMText
 10
375.8313957379
 20
37.2993464763
 30
0.0
 40
2.0
 41
0.0
 71
     1
 72
     1
  1
DRAWER : NBE
  7
SLDTEXTSTYLE0
 73
     1
 44
1.0
  0
MTEXT
  5
15B
330
1F
100
AcDbEntity
  8
PV
100
AcDbMText
 10
375.6775400219
 20
33.2896912318
 30
0.0
 40
2.0
 41
0.0
 71
     1
 72
     1
  1
DATE : 21/08/2008
  7
SLDTEXTSTYLE0
 73
     1
 44
1.0
  0
MTEXT
  5
15C
330
1F
100
AcDbEntity
  8
PV
100
AcDbMText
 10
263.2975362943
 20
29.2065828456
 30
0.0
 40
2.0
 41
0.0
 71
     1
 72
     1
  1
GENERAL TOLERANCE : -
  7
SLDTEXTSTYLE0
 73
     1
 44
1.0
  0
MTEXT
  5
15D
330
1F
100
AcDbEntity
  8
PV
100
AcDbMText
 10
318.5208899755
 20
25.2141587627
 30
0.0
 40
2.0
 41
0.0
 71
     1
 72
     1
  1
TREATEMENT: -
  7
SLDTEXTSTYLE0
 73
     1
 44
1.0
  0
MTEXT
  5
15E
330
1F
100
AcDbEntity
  8
PV
100
AcDbMText
 10
392.0458349658
 20
29.2496014774
 30
0.0
 40
2.0
 41
0.0
 71
     1
 72
     1
  1
APPROVED
  7
SLDTEXTSTYLE0
 73
     1
 44
1.0
  0
MTEXT
  5
15F
330
1F
100
AcDbEntity
  8
PV
100
AcDbMText
 10
375.7588660845
 20
29.2541885189
 30
0.0
 40
2.0
 41
0.0
 71
     1
 72
     1
  1
VERIFIED
  7
SLDTEXTSTYLE0
 73
     1
 44
1.0
  0
MTEXT
  5
160
330
1F
100
AcDbEntity
  8
PV
100
AcDbMText
 10
378.5846253155
 20
17.175850702
 30
0.0
 40
3.5
 41
0.0
 71
     1
 72
     1
  1
PAGE: 1 / 1
  7
SLDTEXTSTYLE1
 73
     1
 44
1.0
  0
MTEXT
  5
161
330
1F
100
AcDbEntity
  8
PV
100
AcDbMText
 10
287.9527898279
 20
21.8061121123
 30
0.0
 40
2.0
 41
0.0
 71
     1
 72
     1
  1
Ver.Obj
  7
SLDTEXTSTYLE0
 73
     1
 44
1.0
  0
MTEXT
  5
162
330
1F
100
AcDbEntity
  8
PV
100
AcDbMText
 10
271.2559181763
 20
21.8061121123
 30
0.0
 40
2.0
 41
0.0
 71
     1
 72
     1
  1
Objet 
  7
SLDTEXTSTYLE0
 73
     1
 44
1.0
  0
MTEXT
  5
163
330
1F
100
AcDbEntity
  8
PV
100
AcDbMText
 10
301.9853812714
 20
21.8061121123
 30
0.0
 40
2.0
 41
0.0
 71
     1
 72
     1
  1
Doc. 
  7
SLDTEXTSTYLE0
 73
     1
 44
1.0
  0
MTEXT
  5
165
330
1F
100
AcDbEntity
  8
LOGO1
100
AcDbMText
 10
233.253130815
 20
15.6674262338
 30
0.0
 40
1.3229166667
 41
0.0
 71
     1
 72
     1
  1
WWW.BEA.BE
  7
SLDTEXTSTYLE2
 73
     1
 44
1.0
  0
INSERT
  5
16D
330
1F
100
AcDbEntity
  8
PV
100
AcDbBlockReference
  2
SW_NOTE_0
 10
412.7964325882
 20
12.4443945837
 30
0.0
  0
MTEXT
  5
16E
330
1F
100
AcDbEntity
  8
PV
100
AcDbMText
 10
311.9865610784
 20
21.8061121123
 30
0.0
 40
2.0
 41
0.0
 71
     1
 72
     1
  1
Rev.Doc. 
  7
SLDTEXTSTYLE0
 73
     1
 44
1.0
  0
MTEXT
  5
170
330
1F
100
AcDbEntity
  8
PV
100
AcDbMText
 10
222.0842444312
 20
74.6806382172
 30
0.0
 40
2.0
 41
0.0
 71
     1
 72
     1
  1
Part Volume :   mm³  - Part Weight :  gr
  7
SLDTEXTSTYLE3
 73
     1
 44
1.0
  0
MTEXT
  5
171
330
1F
100
AcDbEntity
  8
PV
100
AcDbMText
 10
328.5937690112
 20
21.8200009258
 30
0.0
 40
2.0
 41
0.0
 71
     1
 72
     1
  1
Scale
  7
SLDTEXTSTYLE0
 73
     1
 44
1.0
  0
MTEXT
  5
172
330
1F
100
AcDbEntity
  8
PV
100
AcDbMText
 10
342.4073314311
 20
18.0448146417
 30
0.0
 40
4.4
 41
0.0
 71
     1
 72
     1
  1
A3
  7
SLDTEXTSTYLE0
 73
     1
 44
1.0
  0
INSERT
  5
179
330
1F
100
AcDbEntity
  8
SLD-0
100
AcDbBlockReference
  2
SW_NOTE_1
 10
225.7313550468
 20
16.376149639
 30
0.0
  0
CIRCLE
  5
17A
330
1F
100
AcDbEntity
  8
COTATION
100
AcDbCircle
 10
357.5493218577
 20
238.8359110745
 30
0.0
 40
1.199999999999998
  0
CIRCLE
  5
17B
330
1F
100
AcDbEntity
  8
COTATION
100
AcDbCircle
 10
292.2493218577
 20
172.9359110745
 30
0.0
 40
1.200000000000015
  0
DIMENSION
  5
17C
330
1F
100
AcDbEntity
  8
COTATION
100
AcDbDimension
  2
*D4
 10
358.2736430598
 20
239.7926549253
 30
0.0
 11
375.6316075181
 21
262.7204987977
 31
0.0
 70
   163
  1
Drill 2 holes\P\P<>
 71
     1
 42
-1.0
  3
SLDDIMSTYLE0
100
AcDbDiametricDimension
 15
356.8250006556
 25
237.8791672236
 35
0.0
 40
0.0
  0
DIMENSION
  5
189
330
1F
100
AcDbEntity
  8
COTATION
100
AcDbDimension
  2
*D5
 10
357.5493218577
 20
265.7676626236
 30
0.0
 11
324.8993218577
 21
265.7676626236
 31
0.0
 70
   160
 71
     2
 42
-1.0
  3
SLDDIMSTYLE1
100
AcDbAlignedDimension
 13
292.2493218577
 23
180.4359110745
 33
0.0
 14
357.5493218577
 24
246.3359110745
 34
0.0
100
AcDbRotatedDimension
  0
DIMENSION
  5
194
330
1F
100
AcDbEntity
  8
COTATION
100
AcDbDimension
  2
*D6
 10
382.0290074849
 20
172.9359110745
 30
0.0
 11
382.0290074849
 21
205.8859110745
 31
0.0
 70
   160
 71
     2
 42
-1.0
  3
SLDDIMSTYLE1
100
AcDbAlignedDimension
 13
365.0493218577
 23
238.8359110745
 33
0.0
 14
299.7493218577
 24
172.9359110745
 34
0.0
 50
90.0
100
AcDbRotatedDimension
  0
INSERT
  5
1A9
330
1F
100
AcDbEntity
  8
COTATION
100
AcDbBlockReference
  2
SW_CENTERMARKSYMBOL_0
 10
292.2493218577
 20
172.9359110745
 30
0.0
  0
INSERT
  5
1B5
330
1F
100
AcDbEntity
  8
COTATION
100
AcDbBlockReference
  2
SW_CENTERMARKSYMBOL_1
 10
357.5493218577
 20
238.8359110745
 30
0.0
  0
SPLINE
  5
1B6
330
1F
100
AcDbEntity
  8
0
  6
Continuous
 62
     7
370
    15
100
AcDbSpline
210
0.0
220
0.0
230
1.0
 70
     8
 71
     3
 72
    22
 73
    18
 74
     0
 42
0.00000001
 43
0.00000001
 40
0.0
 40
0.0
 40
0.0
 40
0.0
 40
0.0000023323432667
 40
0.0253283682627704
 40
0.0786386113543853
 40
0.185518837649561
 40
0.293129956140435
 40
0.4016777144359948
 40
0.4562732065440369
 40
0.5061861653530353
 40
0.5899010011916171
 40
0.6576987747905374
 40
0.7260520628738506
 40
0.79324105467335
 40
0.8611549437097717
 40
0.9301806094473147
 40
1.0
 40
1.0
 40
1.0
 40
1.0
 10
118.5737440520776
 20
163.7509110744605
 30
0.0
 10
118.5737426765288
 20
163.7509228023326
 30
0.0
 10
118.5588047347441
 20
163.878283069723
 30
0.0
 10
118.5126239964248
 20
164.2760155019103
 30
0.0
 10
118.4052513645386
 20
165.2326494688775
 30
0.0
 10
118.2556254479522
 20
166.6770192790686
 30
0.0
 10
118.086781517627
 20
168.55124203006
 30
0.0
 10
117.9579553078296
 20
170.2568324758129
 30
0.0
 10
117.8659726944444
 20
171.6862380520273
 30
0.0
 10
117.790474106328
 20
172.9990060944416
 30
0.0
 10
117.7180294299479
 20
174.4720581354674
 30
0.0
 10
117.6504811966496
 20
176.156818834507
 30
0.0
 10
117.5984146251166
 20
177.7732622716216
 30
0.0
 10
117.5573783413444
 20
179.4403786354183
 30
0.0
 10
117.5281722117279
 20
181.1524487623668
 30
0.0
 10
117.5103344429722
 20
182.9144693300131
 30
0.0
 10
117.5091268893442
 20
184.1058070191725
 30
0.0
 10
117.5085196609658
 20
184.7048810778532
 30
0.0
  0
LINE
  5
1B7
330
1F
100
AcDbEntity
  8
0
  6
Continuous
 62
     7
370
    15
100
AcDbLine
 10
119.5009090571
 20
184.7048810779
 30
0.0
 11
117.508519661
 21
184.7048810779
 31
0.0
  0
SPLINE
  5
1B8
330
1F
100
AcDbEntity
  8
0
  6
Continuous
 62
     7
370
    15
100
AcDbSpline
210
0.0
220
0.0
230
1.0
 70
     8
 71
     3
 72
    21
 73
    17
 74
     0
 42
0.00000001
 43
0.00000001
 40
0.0
 40
0.0
 40
0.0
 40
0.0
 40
0.069121615900371
 40
0.1389318643601806
 40
0.2098234569979057
 40
0.2814861952284973
 40
0.3506401356533193
 40
0.4203860928960639
 40
0.490959266386757
 40
0.5620728807568954
 40
0.6104491350928377
 40
0.7075157421700075
 40
0.7562006895515286
 40
0.8170202174845727
 40
0.9389308966101632
 40
1.0
 40
1.0
 40
1.0
 40
1.0
 10
119.5009090571493
 20
184.7048810778532
 30
0.0
 10
119.5014008357088
 20
184.1839865903293
 30
0.0
 10
119.502389292232
 20
183.137008140188
 30
0.0
 10
119.5194227429609
 20
181.5655463922153
 30
0.0
 10
119.5485762001188
 20
179.9996651856379
 30
0.0
 10
119.5899860559966
 20
178.475240496592
 30
0.0
 10
119.6421587316573
 20
177.0049047117666
 30
0.0
 10
119.7039924438265
 20
175.5940005870696
 30
0.0
 10
119.7755532854238
 20
174.2279485196044
 30
0.0
 10
119.8473840652724
 20
173.0560508278465
 30
0.0
 10
119.9355545127048
 20
171.7762016745204
 30
0.0
 10
120.0208756381621
 20
170.6878077451062
 30
0.0
 10
120.1168492153858
 20
169.5884905724172
 30
0.0
 10
120.2282687523088
 20
168.4032701033539
 30
0.0
 10
120.3511291179886
 20
167.2242743446869
 30
0.0
 10
120.44665356047
 20
166.3888309475141
 30
0.0
 10
120.4785346348377
 20
166.1100035355621
 30
0.0
  0
SPLINE
  5
1B9
330
1F
100
AcDbEntity
  8
0
  6
Continuous
 62
     7
370
    15
100
AcDbSpline
210
0.0
220
0.0
230
1.0
 70
     8
 71
     3
 72
    12
 73
     8
 74
     0
 42
0.00000001
 43
0.00000001
 40
0.0
 40
0.0
 40
0.0
 40
0.0
 40
0.3027795701734224
 40
0.5331146422179527
 40
0.7234690336527926
 40
0.9147985715066834
 40
0.9999999999999999
 40
0.9999999999999999
 40
0.9999999999999999
 40
0.9999999999999999
 10
120.4785346348377
 20
166.1100035355621
 30
0.0
 10
120.4472604697548
 20
165.7695835635247
 30
0.0
 10
120.3921949469413
 20
165.1701941414027
 30
0.0
 10
119.986666835177
 20
164.4462297332502
 30
0.0
 10
119.4770748335682
 20
163.9777147593102
 30
0.0
 10
118.9781077088999
 20
163.7724335925747
 30
0.0
 10
118.6689867278331
 20
163.7559804277014
 30
0.0
 10
118.5737440520777
 20
163.7509110744605
 30
0.0
  0
SPLINE
  5
1BA
330
1F
100
AcDbEntity
  8
0
  6
Continuous
 62
     7
370
    15
100
AcDbSpline
210
0.0
220
0.0
230
1.0
 70
     8
 71
     3
 72
    22
 73
    18
 74
     0
 42
0.00000001
 43
0.00000001
 40
0.0
 40
0.0
 40
0.0
 40
0.0
 40
0.0337682194454731
 40
0.1015953990337782
 40
0.1700753938962412
 40
0.2392097746914976
 40
0.2739655401503274
 40
0.3184885769788219
 40
0.4081203565469544
 40
0.4984257423335226
 40
0.5437328518948937
 40
0.6288744674855515
 40
0.7142667202439524
 40
0.8567818212827655
 40
0.9282967723525503
 40
0.999997667626411
 40
0.9999999999999999
 40
0.9999999999999999
 40
0.9999999999999999
 40
0.9999999999999999
 10
39.24854960870954
 20
184.7048810778532
 30
0.0
 10
39.24850469324168
 20
184.4152939615669
 30
0.0
 10
39.24836956012078
 20
183.5440392991275
 30
0.0
 10
39.23968029397813
 20
182.0873783529402
 30
0.0
 10
39.21686659996585
 20
180.3478479320504
 30
0.0
 10
39.18730484136624
 20
178.91636613767
 30
0.0
 10
39.15547044237897
 20
177.7093489821588
 30
0.0
 10
39.11384553972281
 20
176.3595993601255
 30
0.0
 10
39.04689101118526
 20
174.625544720501
 30
0.0
 10
38.96565541021175
 20
172.9796659357944
 30
0.0
 10
38.87681928102642
 20
171.4426912354311
 30
0.0
 10
38.78166729532224
 20
170.0111194958494
 30
0.0
 10
38.63010260147315
 20
168.0678334599952
 30
0.0
 10
38.4704833529371
 20
166.3629874360036
 30
0.0
 10
38.30906592933985
 20
164.8435596731314
 30
0.0
 10
38.225614540952
 20
164.1114680778797
 30
0.0
 10
38.18332659314662
 20
163.7509228023326
 30
0.0
 10
38.18332521759776
 20
163.7509110744605
 30
0.0
  0
LINE
  5
1BB
330
1F
100
AcDbEntity
  8
0
  6
Continuous
 62
     7
370
    15
100
AcDbLine
 10
117.508519661
 20
184.7048810779
 30
0.0
 11
39.2485496087
 21
184.7048810779
 31
0.0
  0
LINE
  5
1BC
330
1F
100
AcDbEntity
  8
0
  6
Continuous
 62
     7
370
    15
100
AcDbLine
 10
38.1833252176
 20
163.7509110745
 30
0.0
 11
118.5737440521
 21
163.7509110745
 31
0.0
  0
SPLINE
  5
1BD
330
1F
100
AcDbEntity
  8
0
  6
Continuous
 62
     7
370
    15
100
AcDbSpline
210
0.0
220
0.0
230
1.0
 70
     8
 71
     3
 72
    22
 73
    18
 74
     0
 42
0.00000001
 43
0.00000001
 40
0.0
 40
0.0
 40
0.0
 40
0.0
 40
0.0000023323708018
 40
0.0253286672823967
 40
0.1322978069866637
 40
0.239655874218602
 40
0.3476226177706515
 40
0.4562575390958436
 40
0.5396161822299567
 40
0.6179998868223949
 40
0.6907496013857036
 40
0.7260347799688275
 40
0.7597686604553312
 40
0.8275723634093206
 40
0.8960462698345941
 40
0.9652164212614472
 40
1.0
 40
1.0
 40
1.0
 40
1.0
 10
38.18332521759773
 20
247.9509110744605
 30
0.0
 10
38.18332659314658
 20
247.9508993465884
 30
0.0
 10
38.19826453497544
 20
247.8235390791185
 30
0.0
 10
38.27595404626918
 20
247.1544288821115
 30
0.0
 10
38.41330336396405
 20
245.9023453675462
 30
0.0
 10
38.58793460394477
 20
244.1015892956431
 30
0.0
 10
38.75007210919106
 20
242.1442065919709
 30
0.0
 10
38.884395322202
 20
240.1728618735727
 30
0.0
 10
38.9902114221177
 20
238.2633254652257
 30
0.0
 10
39.06969761940901
 20
236.5143316811033
 30
0.0
 10
39.12279566576412
 20
235.0607046375069
 30
0.0
 10
39.15720387068259
 20
233.9255304261458
 30
0.0
 10
39.18660836897316
 20
232.8130211617404
 30
0.0
 10
39.21600873925647
 20
231.4020241176175
 30
0.0
 10
39.2392480590428
 20
229.6633753957848
 30
0.0
 10
39.24834067229778
 20
228.1867256331437
 30
0.0
 10
39.24849722513523
 20
227.2952383735297
 30
0.0
 10
39.24854960870953
 20
226.9969410710678
 30
0.0
  0
LINE
  5
1BE
330
1F
100
AcDbEntity
  8
0
  6
Continuous
 62
     7
370
    15
100
AcDbLine
 10
118.5737440521
 20
247.9509110745
 30
0.0
 11
38.1833252176
 21
247.9509110745
 31
0.0
  0
SPLINE
  5
1BF
330
1F
100
AcDbEntity
  8
0
  6
Continuous
 62
     7
370
    15
100
AcDbSpline
210
0.0
220
0.0
230
1.0
 70
     8
 71
     3
 72
    22
 73
    18
 74
     0
 42
0.00000001
 43
0.00000001
 40
0.0
 40
0.0
 40
0.0
 40
0.0
 40
0.0335975048490928
 40
0.1010317397785684
 40
0.1694899648097351
 40
0.2390186446350291
 40
0.273967522587326
 40
0.3739871684993959
 40
0.4414515296847441
 40
0.5094929499377762
 40
0.5437302062142415
 40
0.6608021260278863
 40
0.7142454855010233
 40
0.7853887100249217
 40
0.8566830808774731
 40
0.9999976676095456
 40
1.0
 40
1.0
 40
1.0
 40
1.0
 10
117.5085196609658
 20
226.9969410710678
 30
0.0
 10
117.5085633495909
 20
227.2850617016859
 30
0.0
 10
117.5086947265433
 20
228.1514751067348
 30
0.0
 10
117.5172941612194
 20
229.6031410452642
 30
0.0
 10
117.5400002906231
 20
231.3426956088127
 30
0.0
 10
117.5696045222182
 20
232.779127676765
 30
0.0
 10
117.6134449859548
 20
234.4421814477383
 30
0.0
 10
117.6679227733316
 20
236.0409323025187
 30
0.0
 10
117.7455249095276
 20
237.811626996135
 30
0.0
 10
117.8090999214529
 20
239.0329653360691
 30
0.0
 10
117.8980783586794
 20
240.5539088019416
 30
0.0
 10
117.9903179627787
 20
241.8956986990061
 30
0.0
 10
118.1089516065233
 20
243.3779201430892
 30
0.0
 10
118.2103536258842
 20
244.5246388917368
 30
0.0
 10
118.3656347362798
 20
246.1151867470015
 30
0.0
 10
118.4892201975669
 20
247.2302642215336
 30
0.0
 10
118.5737426765288
 20
247.9508993465885
 30
0.0
 10
118.5737440520776
 20
247.9509110744605
 30
0.0
  0
LINE
  5
1C0
330
1F
100
AcDbEntity
  8
0
  6
Continuous
 62
     7
370
    15
100
AcDbLine
 10
117.508519661
 20
226.9969410711
 30
0.0
 11
39.2485496087
 21
226.9969410711
 31
0.0
  0
SPLINE
  5
1C1
330
1F
100
AcDbEntity
  8
0
  6
Continuous
 62
     7
370
    15
100
AcDbSpline
210
0.0
220
0.0
230
1.0
 70
     8
 71
     3
 72
    21
 73
    17
 74
     0
 42
0.00000001
 43
0.00000001
 40
0.0
 40
0.0
 40
0.0
 40
0.0
 40
0.034696549538793
 40
0.1043848577891357
 40
0.1747485494804117
 40
0.2457881087661026
 40
0.2815022780113441
 40
0.3161832685746164
 40
0.3858281430198546
 40
0.4559877816599459
 40
0.526642417949723
 40
0.5621035400702707
 40
0.6589976472267116
 40
0.7562141278487919
 40
0.8779756708560397
 40
1.0
 40
1.0
 40
1.0
 40
1.0
 10
37.25616021252604
 20
226.9969410710678
 30
0.0
 10
37.25613779055698
 20
227.2582782463019
 30
0.0
 10
37.25607033387662
 20
228.0445133110113
 30
0.0
 10
37.24748338486565
 20
229.359222454919
 30
0.0
 10
37.22456413390664
 20
230.9292119867642
 30
0.0
 10
37.19490108132675
 20
232.2210761275962
 30
0.0
 10
37.16537990262179
 20
233.2312832658823
 30
0.0
 10
37.13248094037009
 20
234.216412508559
 30
0.0
 10
37.0849821926554
 20
235.4138748045778
 30
0.0
 10
37.01815434850034
 20
236.8027583244813
 30
0.0
 10
36.95489693141278
 20
237.9158953066381
 30
0.0
 10
36.87641595727428
 20
239.1517676914517
 30
0.0
 10
36.78018509272646
 20
240.4855316517487
 30
0.0
 10
36.63564408095784
 20
242.193462539154
 30
0.0
 10
36.46867656628459
 20
243.9083015710737
 30
0.0
 10
36.34196080924396
 20
245.0302431379896
 30
0.0
 10
36.27853463483767
 20
245.5918186133589
 30
0.0
  0
SPLINE
  5
1C2
330
1F
100
AcDbEntity
  8
0
  6
Continuous
 62
     7
370
    15
100
AcDbSpline
210
0.0
220
0.0
230
1.0
 70
     8
 71
     3
 72
    24
 73
    20
 74
     0
 42
0.00000001
 43
0.00000001
 40
0.0
 40
0.0
 40
0.0
 40
0.0
 40
0.0373441468060449
 40
0.1123753080324271
 40
0.197616438969213
 40
0.2453241951686043
 40
0.3029675324995015
 40
0.3500624587875877
 40
0.4290959931935592
 40
0.5000203674780205
 40
0.5332644154502276
 40
0.6274128915226157
 40
0.675142173486103
 40
0.7235538904558905
 40
0.7562133387225668
 40
0.8210102730487937
 40
0.8840919772989909
 40
0.9151596365952971
 40
0.9999999999999999
 40
0.9999999999999999
 40
0.9999999999999999
 40
0.9999999999999999
 10
36.27853463483767
 20
245.5918186133589
 30
0.0
 10
36.27904634735778
 20
245.6337171989431
 30
0.0
 10
36.2805861831015
 20
245.7597976389542
 30
0.0
 10
36.2993335282732
 20
245.9810288954542
 30
0.0
 10
36.33906592088245
 20
246.2113389985605
 30
0.0
 10
36.39210209101695
 20
246.4185929419257
 30
0.0
 10
36.44508532593024
 20
246.5813817806641
 30
0.0
 10
36.5218970923566
 20
246.7728296911855
 30
0.0
 10
36.62127862715641
 20
246.97081998474
 30
0.0
 10
36.73281132757901
 20
247.1439654399806
 30
0.0
 10
36.86780532937696
 20
247.3208715075428
 30
0.0
 10
37.00278382450429
 20
247.4649991335635
 30
0.0
 10
37.1669236753266
 20
247.6018169919863
 30
0.0
 10
37.28574791587538
 20
247.6844432279587
 30
0.0
 10
37.42694701508958
 20
247.7673166960202
 30
0.0
 10
37.59066985847861
 20
247.8437414623693
 30
0.0
 10
37.76119339231708
 20
247.8973965052486
 30
0.0
 10
37.95770875800873
 20
247.9400838453126
 30
0.0
 10
38.08797509900931
 20
247.946335266538
 30
0.0
 10
38.18332521759773
 20
247.9509110744605
 30
0.0
  0
LINE
  5
1C3
330
1F
100
AcDbEntity
  8
0
  6
Continuous
 62
     7
370
    15
100
AcDbLine
 10
37.2561602125
 20
226.9969410711
 30
0.0
 11
39.2485496087
 21
226.9969410711
 31
0.0
  0
SPLINE
  5
1C4
330
1F
100
AcDbEntity
  8
0
  6
Continuous
 62
     7
370
    15
100
AcDbSpline
210
0.0
220
0.0
230
1.0
 70
     8
 71
     3
 72
    18
 73
    14
 74
     0
 42
0.00000001
 43
0.00000001
 40
0.0
 40
0.0
 40
0.0
 40
0.0
 40
0.1084489760050399
 40
0.2173812692596361
 40
0.3272376804674714
 40
0.437955726519573
 40
0.4898786797468788
 40
0.5769593983867354
 40
0.6652008757865673
 40
0.7185742536614849
 40
0.7878288274148632
 40
0.9106590592764313
 40
1.0
 40
1.0
 40
1.0
 40
1.0
 10
120.4785346348377
 20
245.5918186133589
 30
0.0
 10
120.4221164037563
 20
245.0936984770983
 30
0.0
 10
120.3090285062616
 20
244.095238266104
 30
0.0
 10
120.147282706264
 20
242.4711296223792
 30
0.0
 10
119.9941821043115
 20
240.7156842567408
 30
0.0
 10
119.8790385865502
 20
239.1407677559364
 30
0.0
 10
119.7835213871529
 20
237.6119403855231
 30
0.0
 10
119.7050848581775
 20
236.153619160642
 30
0.0
 10
119.6384923978922
 20
234.6070500739498
 30
0.0
 10
119.5874509362695
 20
233.129821230623
 30
0.0
 10
119.5394983292742
 20
231.3641233784953
 30
0.0
 10
119.504560078936
 20
229.2693124847028
 30
0.0
 10
119.5019908900397
 20
227.6702665887051
 30
0.0
 10
119.5009090571493
 20
226.9969410710678
 30
0.0
  0
LINE
  5
1C5
330
1F
100
AcDbEntity
  8
0
  6
Continuous
 62
     7
370
    15
100
AcDbLine
 10
119.5009090571
 20
226.9969410711
 30
0.0
 11
117.508519661
 21
226.9969410711
 31
0.0
  0
SPLINE
  5
1C6
330
1F
100
AcDbEntity
  8
0
  6
Continuous
 62
     7
370
    15
100
AcDbSpline
210
0.0
220
0.0
230
1.0
 70
     8
 71
     3
 72
    27
 73
    23
 74
     0
 42
0.00000001
 43
0.00000001
 40
0.0
 40
0.0
 40
0.0
 40
0.0
 40
0.0413053088498496
 40
0.1249346322128758
 40
0.1676814089839317
 40
0.250530520600678
 40
0.2924416506734411
 40
0.3349734592436777
 40
0.377963731395021
 40
0.4211967943708849
 40
0.4651327383172184
 40
0.5092866040550762
 40
0.5592856886686715
 40
0.609552006144338
 40
0.6605846705042558
 40
0.711852995444524
 40
0.7541292152858577
 40
0.7965201599629178
 40
0.8419469097534787
 40
0.893383137247634
 40
0.9549178599425432
 40
1.0
 40
1.0
 40
1.0
 40
1.0
 10
118.5737440520776
 20
247.9509110744605
 30
0.0
 10
118.6200947830493
 20
247.9497157656809
 30
0.0
 10
118.7602901159978
 20
247.946100359649
 30
0.0
 10
118.9467513637452
 20
247.9120754929984
 30
0.0
 10
119.1709031275197
 20
247.8419602868993
 30
0.0
 10
119.3425305515763
 20
247.7627457037946
 30
0.0
 10
119.5023959694687
 20
247.6641134442816
 30
0.0
 10
119.6179219543662
 20
247.5795864074328
 30
0.0
 10
119.7277120663636
 20
247.4854740113003
 30
0.0
 10
119.8313073988919
 20
247.3823434148614
 30
0.0
 10
119.9280494940603
 20
247.2710304494735
 30
0.0
 10
120.0213607268268
 20
247.1471857988895
 30
0.0
 10
120.1094832316535
 20
247.0110138890095
 30
0.0
 10
120.1912419428197
 20
246.8620715022803
 30
0.0
 10
120.2630218434704
 20
246.7065092574266
 30
0.0
 10
120.320972802996
 20
246.5548591594595
 30
0.0
 10
120.3669447676526
 20
246.4093529483955
 30
0.0
 10
120.4036704326067
 20
246.2680111103198
 30
0.0
 10
120.4350836890308
 20
246.1148680592381
 30
0.0
 10
120.4608461447486
 20
245.9389339981416
 30
0.0
 10
120.4760925065315
 20
245.7620474579383
 30
0.0
 10
120.4778088794385
 20
245.6424074799368
 30
0.0
 10
120.4785346348377
 20
245.5918186133589
 30
0.0
  0
SPLINE
  5
1C7
330
1F
100
AcDbEntity
  8
0
  6
Continuous
 62
     7
370
    15
100
AcDbSpline
210
0.0
220
0.0
230
1.0
 70
     8
 71
     3
 72
    18
 73
    14
 74
     0
 42
0.00000001
 43
0.00000001
 40
0.0
 40
0.0
 40
0.0
 40
0.0
 40
0.1087637015409073
 40
0.2179006877469356
 40
0.3276158526698825
 40
0.4379620445535136
 40
0.4843654407769388
 40
0.5774983795138974
 40
0.6713387846173063
 40
0.7185748792624492
 40
0.7769428974951901
 40
0.8908659553812519
 40
1.0
 40
1.0
 40
1.0
 40
1.0
 10
36.2785346348377
 20
166.1100035355621
 30
0.0
 10
36.33511451855974
 20
166.6095828088345
 30
0.0
 10
36.44846847213991
 20
167.6104559465441
 30
0.0
 10
36.61036745794914
 20
169.2368549794415
 30
0.0
 10
36.76327304335499
 20
170.9911835291275
 30
0.0
 10
36.87584257837924
 20
172.5314596519296
 30
0.0
 10
36.97175624298412
 20
174.0582609941665
 30
0.0
 10
37.05267885811027
 20
175.5537086018414
 30
0.0
 10
37.12039281336053
 20
177.1407790724145
 30
0.0
 10
37.16821235924731
 20
178.5397814989062
 30
0.0
 10
37.21197611039478
 20
180.1151720068569
 30
0.0
 10
37.25068436033582
 20
182.2000901122283
 30
0.0
 10
37.25436124255823
 20
183.8819874776771
 30
0.0
 10
37.25616021252605
 20
184.7048810778532
 30
0.0
  0
LINE
  5
1C8
330
1F
100
AcDbEntity
  8
0
  6
Continuous
 62
     7
370
    15
100
AcDbLine
 10
37.2561602125
 20
184.7048810779
 30
0.0
 11
39.2485496087
 21
184.7048810779
 31
0.0
  0
SPLINE
  5
1C9
330
1F
100
AcDbEntity
  8
0
  6
Continuous
 62
     7
370
    15
100
AcDbSpline
210
0.0
220
0.0
230
1.0
 70
     8
 71
     3
 72
    13
 73
     9
 74
     0
 42
0.00000001
 43
0.00000001
 40
0.0
 40
0.0
 40
0.0
 40
0.0
 40
0.1675166412566381
 40
0.334748311810015
 40
0.5090675918715845
 40
0.7116829970540685
 40
0.9547692784646908
 40
1.0
 40
1.0
 40
1.0
 40
1.0
 10
38.18332521759776
 20
163.7509110744605
 30
0.0
 10
37.99502460057512
 20
163.7702310977244
 30
0.0
 10
37.61874369386479
 20
163.8088382780211
 30
0.0
 10
37.11565965090614
 20
164.1077615011565
 30
0.0
 10
36.69776813542074
 20
164.5586337928192
 30
0.0
 10
36.38711498361365
 20
165.1889407363367
 30
0.0
 10
36.28430109476889
 20
165.7370541394685
 30
0.0
 10
36.27931659533164
 20
166.0594297524319
 30
0.0
 10
36.2785346348377
 20
166.1100035355621
 30
0.0
  0
LINE
  5
1CA
330
1F
100
AcDbEntity
  8
0
  6
Continuous
 62
     7
370
    15
100
AcDbLine
 10
39.2485496087
 20
226.9969410711
 30
0.0
 11
39.2485496087
 21
184.7048810779
 31
0.0
  0
LINE
  5
1CB
330
1F
100
AcDbEntity
  8
0
  6
Continuous
 62
     7
370
    15
100
AcDbLine
 10
117.508519661
 20
184.7048810779
 30
0.0
 11
117.508519661
 21
226.9969410711
 31
0.0
  0
LINE
  5
1CC
330
1F
100
AcDbEntity
  8
0
  6
Continuous
 62
     7
370
    15
100
AcDbLine
 10
119.5009090571
 20
226.9969410711
 30
0.0
 11
119.5009090571
 21
184.7048810779
 31
0.0
  0
LINE
  5
1CD
330
1F
100
AcDbEntity
  8
0
  6
Continuous
 62
     7
370
    15
100
AcDbLine
 10
37.2561602125
 20
184.7048810779
 30
0.0
 11
37.2561602125
 21
226.9969410711
 31
0.0
  0
LINE
  5
1CE
330
1F
100
AcDbEntity
  8
0
  6
Continuous
 62
     7
370
    15
100
AcDbLine
 10
120.4785346348
 20
175.3509110745
 30
0.0
 11
120.5222789666
 21
175.5840649035
 31
0.0
  0
LINE
  5
1CF
330
1F
100
AcDbEntity
  8
0
  6
Continuous
 62
     7
370
    15
100
AcDbLine
 10
120.4785346348
 20
170.3509110745
 30
0.0
 11
120.4785346348
 21
175.3509110745
 31
0.0
  0
LINE
  5
1D0
330
1F
100
AcDbEntity
  8
0
  6
Continuous
 62
     7
370
    15
100
AcDbLine
 10
120.5222789666
 20
170.1177572454
 30
0.0
 11
120.4785346348
 21
170.3509110745
 31
0.0
  0
LINE
  5
1D1
330
1F
100
AcDbEntity
  8
0
  6
Continuous
 62
     7
370
    15
100
AcDbLine
 10
120.5222789666
 20
165.7364151078
 30
0.0
 11
120.5222789666
 21
170.1177572454
 31
0.0
  0
SPLINE
  5
1D2
330
1F
100
AcDbEntity
  8
0
  6
Continuous
 62
     7
370
    15
100
AcDbSpline
210
0.0
220
0.0
230
1.0
 70
    24
 71
     1
 72
     4
 73
     2
 74
     0
 42
0.00000001
 43
0.00000001
 40
0.0
 40
0.0
 40
1.0
 40
1.0
 10
120.4785346348377
 20
166.1100035355621
 30
0.0
 10
120.5222789666007
 20
165.7364151077591
 30
0.0
  0
SPLINE
  5
1D3
330
1F
100
AcDbEntity
  8
0
  6
Continuous
 62
     7
370
    15
100
AcDbSpline
210
0.0
220
0.0
230
1.0
 70
    24
 71
     1
 72
     4
 73
     2
 74
     0
 42
0.00000001
 43
0.00000001
 40
0.0
 40
0.0
 40
1.0
 40
1.0
 10
120.5222789666006
 20
245.9654070411619
 30
0.0
 10
120.4785346348377
 20
245.5918186133589
 30
0.0
  0
LINE
  5
1D4
330
1F
100
AcDbEntity
  8
0
  6
Continuous
 62
     7
370
    15
100
AcDbLine
 10
120.5222789666
 20
241.5840649035
 30
0.0
 11
120.5222789666
 21
245.9654070412
 31
0.0
  0
LINE
  5
1D5
330
1F
100
AcDbEntity
  8
0
  6
Continuous
 62
     7
370
    15
100
AcDbLine
 10
120.4785346348
 20
241.3509110745
 30
0.0
 11
120.5222789666
 21
241.5840649035
 31
0.0
  0
LINE
  5
1D6
330
1F
100
AcDbEntity
  8
0
  6
Continuous
 62
     7
370
    15
100
AcDbLine
 10
120.4785346348
 20
241.3509110745
 30
0.0
 11
120.4785346348
 21
236.3509110745
 31
0.0
  0
LINE
  5
1D7
330
1F
100
AcDbEntity
  8
0
  6
Continuous
 62
     7
370
    15
100
AcDbLine
 10
120.5222789666
 20
236.1177572454
 30
0.0
 11
120.4785346348
 21
236.3509110745
 31
0.0
  0
LINE
  5
1D8
330
1F
100
AcDbEntity
  8
0
  6
Continuous
 62
     7
370
    15
100
AcDbLine
 10
120.5222789666
 20
175.5840649035
 30
0.0
 11
120.5222789666
 21
236.1177572454
 31
0.0
  0
LINE
  5
1D9
330
1F
100
AcDbEntity
  8
0
  6
Continuous
 62
     7
370
    15
100
AcDbLine
 10
36.2347903031
 20
241.5840649035
 30
0.0
 11
36.2785346348
 21
241.3509110745
 31
0.0
  0
LINE
  5
1DA
330
1F
100
AcDbEntity
  8
0
  6
Continuous
 62
     7
370
    15
100
AcDbLine
 10
36.2347903031
 20
241.5840649035
 30
0.0
 11
36.2347903031
 21
245.9654070412
 31
0.0
  0
SPLINE
  5
1DB
330
1F
100
AcDbEntity
  8
0
  6
Continuous
 62
     7
370
    15
100
AcDbSpline
210
0.0
220
0.0
230
1.0
 70
    24
 71
     1
 72
     4
 73
     2
 74
     0
 42
0.00000001
 43
0.00000001
 40
0.0
 40
0.0
 40
1.0
 40
1.0
 10
36.27853463483767
 20
245.5918186133589
 30
0.0
 10
36.23479030307471
 20
245.9654070411619
 30
0.0
  0
SPLINE
  5
1DC
330
1F
100
AcDbEntity
  8
0
  6
Continuous
 62
     7
370
    15
100
AcDbSpline
210
0.0
220
0.0
230
1.0
 70
    24
 71
     1
 72
     4
 73
     2
 74
     0
 42
0.00000001
 43
0.00000001
 40
0.0
 40
0.0
 40
1.0
 40
1.0
 10
36.23479030307473
 20
165.7364151077591
 30
0.0
 10
36.2785346348377
 20
166.1100035355621
 30
0.0
  0
LINE
  5
1DD
330
1F
100
AcDbEntity
  8
0
  6
Continuous
 62
     7
370
    15
100
AcDbLine
 10
36.2347903031
 20
165.7364151078
 30
0.0
 11
36.2347903031
 21
170.1177572454
 31
0.0
  0
LINE
  5
1DE
330
1F
100
AcDbEntity
  8
0
  6
Continuous
 62
     7
370
    15
100
AcDbLine
 10
36.2785346348
 20
170.3509110745
 30
0.0
 11
36.2347903031
 21
170.1177572454
 31
0.0
  0
LINE
  5
1DF
330
1F
100
AcDbEntity
  8
0
  6
Continuous
 62
     7
370
    15
100
AcDbLine
 10
36.2785346348
 20
170.3509110745
 30
0.0
 11
36.2785346348
 21
175.3509110745
 31
0.0
  0
LINE
  5
1E0
330
1F
100
AcDbEntity
  8
0
  6
Continuous
 62
     7
370
    15
100
AcDbLine
 10
36.2347903031
 20
175.5840649035
 30
0.0
 11
36.2785346348
 21
175.3509110745
 31
0.0
  0
LINE
  5
1E1
330
1F
100
AcDbEntity
  8
0
  6
Continuous
 62
     7
370
    15
100
AcDbLine
 10
36.2347903031
 20
175.5840649035
 30
0.0
 11
36.2347903031
 21
236.1177572454
 31
0.0
  0
LINE
  5
1E2
330
1F
100
AcDbEntity
  8
0
  6
Continuous
 62
     7
370
    15
100
AcDbLine
 10
36.2785346348
 20
236.3509110745
 30
0.0
 11
36.2347903031
 21
236.1177572454
 31
0.0
  0
LINE
  5
1E3
330
1F
100
AcDbEntity
  8
0
  6
Continuous
 62
     7
370
    15
100
AcDbLine
 10
36.2785346348
 20
236.3509110745
 30
0.0
 11
36.2785346348
 21
241.3509110745
 31
0.0
  0
SPLINE
  5
1E4
330
1F
100
AcDbEntity
  8
0
  6
Continuous
 62
     7
370
    15
100
AcDbSpline
210
0.0
220
0.0
230
1.0
 70
     8
 71
     3
 72
    24
 73
    20
 74
     0
 42
0.00000001
 43
0.00000001
 40
0.0
 40
0.0
 40
0.0
 40
0.0
 40
0.0386069976719778
 40
0.1172712404307223
 40
0.1983049813279949
 40
0.2461964688921864
 40
0.3040721067653037
 40
0.3447146852559247
 40
0.4236260030702154
 40
0.4977440373300087
 40
0.5337047848665439
 40
0.6277250813414286
 40
0.67587234254473
 40
0.7243856665876789
 40
0.7565404707990268
 40
0.8207249761423667
 40
0.8844821172912097
 40
0.9163386088900023
 40
1.0
 40
1.0
 40
1.0
 40
1.0
 10
120.5222789666007
 20
165.7364151077591
 30
0.0
 10
120.5217274696362
 20
165.6932336961678
 30
0.0
 10
120.5200522621084
 20
165.5620673790173
 30
0.0
 10
120.5002984933836
 20
165.3407898066686
 30
0.0
 10
120.459606753919
 20
165.1118674858084
 30
0.0
 10
120.4070983415723
 20
164.9095370329725
 30
0.0
 10
120.3557163185869
 20
164.7538847773922
 30
0.0
 10
120.2816676743236
 20
164.5696969206125
 30
0.0
 10
120.1849850761609
 20
164.3753594023622
 30
0.0
 10
120.0705248198192
 20
164.1970942430402
 30
0.0
 10
119.9314624702519
 20
164.0160056569004
 30
0.0
 10
119.7938250985184
 20
163.8705892265568
 30
0.0
 10
119.6291136953907
 20
163.7348023173718
 30
0.0
 10
119.5101751579196
 20
163.6531000065953
 30
0.0
 10
119.369982105671
 20
163.5717672751864
 30
0.0
 10
119.206965479033
 20
163.4963682653794
 30
0.0
 10
119.035909988949
 20
163.4430488458513
 30
0.0
 10
118.8395433580638
 20
163.4010886805001
 30
0.0
 10
118.7101276144392
 20
163.3950063340296
 30
0.0
 10
118.616400990567
 20
163.3906013228313
 30
0.0
  0
SPLINE
  5
1E5
330
1F
100
AcDbEntity
  8
0
  6
Continuous
 62
     7
370
    15
100
AcDbSpline
210
0.0
220
0.0
230
1.0
 70
     8
 71
     3
 72
     9
 73
     5
 74
     0
 42
0.00000001
 43
0.00000001
 40
0.0
 40
0.0
 40
0.0
 40
0.0
 40
0.2766895487655038
 40
1.0
 40
1.0
 40
1.0
 40
1.0
 10
118.616400990567
 20
163.3906013228313
 30
0.0
 10
118.6124536443282
 20
163.4236808504526
 30
0.0
 10
118.5981873077193
 20
163.5432355201858
 30
0.0
 10
118.5840034120526
 20
163.663745178864
 30
0.0
 10
118.5737440520776
 20
163.7509110744605
 30
0.0
  0
SPLINE
  5
1E6
330
1F
100
AcDbEntity
  8
0
  6
Continuous
 62
     7
370
    15
100
AcDbSpline
210
0.0
220
0.0
230
1.0
 70
     8
 71
     3
 72
     9
 73
     5
 74
     0
 42
0.00000001
 43
0.00000001
 40
0.0
 40
0.0
 40
0.0
 40
0.0
 40
0.7233104512158918
 40
1.0
 40
1.0
 40
1.0
 40
1.0
 10
118.5737440520776
 20
247.9509110744605
 30
0.0
 10
118.5840034120531
 20
248.0380769700621
 30
0.0
 10
118.598187307721
 20
248.1585866287503
 30
0.0
 10
118.6124536443311
 20
248.2781412984934
 30
0.0
 10
118.6164009905706
 20
248.3112208261197
 30
0.0
  0
SPLINE
  5
1E7
330
1F
100
AcDbEntity
  8
0
  6
Continuous
 62
     7
370
    15
100
AcDbSpline
210
0.0
220
0.0
230
1.0
 70
     8
 71
     3
 72
    13
 73
     9
 74
     0
 42
0.00000001
 43
0.00000001
 40
0.0
 40
0.0
 40
0.0
 40
0.0
 40
0.16871360505843
 40
0.3371498165535209
 40
0.5125737786819768
 40
0.7157780916529162
 40
0.958533225962975
 40
1.0
 40
1.0
 40
1.0
 40
1.0
 10
118.6164009905706
 20
248.3112208261197
 30
0.0
 10
118.8054521791299
 20
248.2918609927539
 30
0.0
 10
119.183243724275
 20
248.2531731568467
 30
0.0
 10
119.6883799364295
 20
247.9534130137242
 30
0.0
 10
120.1071509894621
 20
247.5014424338524
 30
0.0
 10
120.4168284135972
 20
246.871292313996
 30
0.0
 10
120.5170599615747
 20
246.3284312996437
 30
0.0
 10
120.5216144814226
 20
246.0116273911791
 30
0.0
 10
120.5222789666006
 20
245.9654070411619
 30
0.0
  0
SPLINE
  5
1E8
330
1F
100
AcDbEntity
  8
0
  6
Continuous
 62
     7
370
    15
100
AcDbSpline
210
0.0
220
0.0
230
1.0
 70
     8
 71
     3
 72
     9
 73
     5
 74
     0
 42
0.00000001
 43
0.00000001
 40
0.0
 40
0.0
 40
0.0
 40
0.0
 40
0.2766895497524367
 40
1.0
 40
1.0
 40
1.0
 40
1.0
 10
38.14066827910482
 20
248.3112208261197
 30
0.0
 10
38.14461562535807
 20
248.2781412983776
 30
0.0
 10
38.1588819619681
 20
248.1585866286341
 30
0.0
 10
38.17306585763596
 20
248.0380769699456
 30
0.0
 10
38.18332521759773
 20
247.9509110744605
 30
0.0
  0
LINE
  5
1E9
330
1F
100
AcDbEntity
  8
0
  6
Continuous
 62
     7
370
    15
100
AcDbLine
 10
118.6164009906
 20
248.3112208261
 30
0.0
 11
38.1406682791
 21
248.3112208261
 31
0.0
  0
SPLINE
  5
1EA
330
1F
100
AcDbEntity
  8
0
  6
Continuous
 62
     7
370
    15
100
AcDbSpline
210
0.0
220
0.0
230
1.0
 70
     8
 71
     3
 72
     9
 73
     5
 74
     0
 42
0.00000001
 43
0.00000001
 40
0.0
 40
0.0
 40
0.0
 40
0.0
 40
0.7233104512345042
 40
1.0
 40
1.0
 40
1.0
 40
1.0
 10
38.18332521759775
 20
163.7509110744605
 30
0.0
 10
38.17306585762281
 20
163.6637451788639
 30
0.0
 10
38.15888196195613
 20
163.5432355201858
 30
0.0
 10
38.14461562534725
 20
163.4236808504526
 30
0.0
 10
38.1406682791084
 20
163.3906013228312
 30
0.0
  0
LINE
  5
1EB
330
1F
100
AcDbEntity
  8
0
  6
Continuous
 62
     7
370
    15
100
AcDbLine
 10
118.6164009906
 20
163.3906013228
 30
0.0
 11
38.1406682791
 21
163.3906013228
 31
0.0
  0
SPLINE
  5
1EC
330
1F
100
AcDbEntity
  8
0
  6
Continuous
 62
     7
370
    15
100
AcDbSpline
210
0.0
220
0.0
230
1.0
 70
     8
 71
     3
 72
    27
 73
    23
 74
     0
 42
0.00000001
 43
0.00000001
 40
0.0
 40
0.0
 40
0.0
 40
0.0
 40
0.0416004399975277
 40
0.1258241988541896
 40
0.1688723807251075
 40
0.2522443730774205
 40
0.294527166853388
 40
0.3373655792404689
 40
0.3806242483928752
 40
0.4241284008355368
 40
0.4683445412586153
 40
0.5127819459122711
 40
0.5629211352475388
 40
0.6133299121704671
 40
0.6645135932707379
 40
0.715936270032571
 40
0.7581507841937671
 40
0.8004806186573686
 40
0.8458438063632968
 40
0.8972114856234541
 40
0.9586707337879279
 40
1.0
 40
1.0
 40
1.0
 40
1.0
 10
38.1406682791084
 20
163.3906013228312
 30
0.0
 10
38.09413100610804
 20
163.3917997024285
 30
0.0
 10
37.95337492053589
 20
163.3954243071866
 30
0.0
 10
37.76616486844055
 20
163.4295296204544
 30
0.0
 10
37.54116312887966
 20
163.499808430127
 30
0.0
 10
37.36880371859341
 20
163.5792459531446
 30
0.0
 10
37.20824487378561
 20
163.6782094583002
 30
0.0
 10
37.09220091481439
 20
163.7630738870318
 30
0.0
 10
36.98202441991192
 20
163.85750374726
 30
0.0
 10
36.87811134364276
 20
163.9609752718549
 30
0.0
 10
36.78109722191684
 20
164.0726861864337
 30
0.0
 10
36.68768672271659
 20
164.196842736776
 30
0.0
 10
36.59962314535338
 20
164.333210016558
 30
0.0
 10
36.51806095539453
 20
164.4822147761899
 30
0.0
 10
36.44652684101362
 20
164.6378593748658
 30
0.0
 10
36.38894410215609
 20
164.7894052913033
 30
0.0
 10
36.34342061951408
 20
164.9345944523485
 30
0.0
 10
36.30719346141993
 20
165.0753831465698
 30
0.0
 10
36.27631857291534
 20
165.2279215425978
 30
0.0
 10
36.25117502734678
 20
165.4031560672935
 30
0.0
 10
36.23694705901379
 20
165.575197297082
 30
0.0
 10
36.23540880510824
 20
165.6901819935078
 30
0.0
 10
36.23479030307473
 20
165.7364151077591
 30
0.0
  0
SPLINE
  5
1ED
330
1F
100
AcDbEntity
  8
0
  6
Continuous
 62
     7
370
    15
100
AcDbSpline
210
0.0
220
0.0
230
1.0
 70
     8
 71
     3
 72
    12
 73
     8
 74
     0
 42
0.00000001
 43
0.00000001
 40
0.0
 40
0.0
 40
0.0
 40
0.0
 40
0.3038549676255391
 40
0.5335341351834171
 40
0.7242856282431666
 40
0.9159790861839905
 40
1.0
 40
1.0
 40
1.0
 40
1.0
 10
36.23479030307471
 20
245.9654070411619
 30
0.0
 10
36.26655642655341
 20
246.3060283457841
 30
0.0
 10
36.32233406070163
 20
246.9041199110028
 30
0.0
 10
36.7310858234389
 20
247.6245340919333
 30
0.0
 10
37.24193209320762
 20
248.0887061109893
 30
0.0
 10
37.73982325472473
 20
248.2903510277742
 30
0.0
 10
38.04704564436121
 20
248.3063464098288
 30
0.0
 10
38.14066827911005
 20
248.3112208260897
 30
0.0
  0
LINE
  5
1EE
330
1F
100
AcDbEntity
  8
0
  6
Continuous
 62
     7
370
    15
100
AcDbLine
 10
35.0069325183
 20
200.6009110745
 30
0.0
 11
35.0069325183
 21
199.6009110745
 31
0.0
  0
LINE
  5
1EF
330
1F
100
AcDbEntity
  8
0
  6
Continuous
 62
     7
370
    15
100
AcDbLine
 10
35.2690759123
 20
200.6009110745
 30
0.0
 11
35.0069325183
 21
200.6009110745
 31
0.0
  0
LINE
  5
1F0
330
1F
100
AcDbEntity
  8
0
  6
Continuous
 62
     7
370
    15
100
AcDbLine
 10
35.2690759123
 20
199.6009110745
 30
0.0
 11
35.0069325183
 21
199.6009110745
 31
0.0
  0
LINE
  5
1F1
330
1F
100
AcDbEntity
  8
0
  6
Continuous
 62
     7
370
    15
100
AcDbLine
 10
35.0069325183
 20
211.1009110745
 30
0.0
 11
35.0069325183
 21
212.1009110745
 31
0.0
  0
LINE
  5
1F2
330
1F
100
AcDbEntity
  8
0
  6
Continuous
 62
     7
370
    15
100
AcDbLine
 10
35.2690759123
 20
211.1009110745
 30
0.0
 11
35.0069325183
 21
211.1009110745
 31
0.0
  0
LINE
  5
1F3
330
1F
100
AcDbEntity
  8
0
  6
Continuous
 62
     7
370
    15
100
AcDbLine
 10
35.2690759123
 20
212.1009110745
 30
0.0
 11
35.0069325183
 21
212.1009110745
 31
0.0
  0
ELLIPSE
  5
1F4
330
1F
100
AcDbEntity
  8
0
  6
Continuous
 62
     7
370
    15
100
AcDbEllipse
 10
38.2297537234
 20
246.3346919859
 30
0.0
 11
1.415937089198387
 21
-1.415937089198394
 31
0.0
210
0.0
220
0.0
230
0.9999999999999998
 40
0.998782766
 41
2.356803477777952
 42
3.926381829401664
  0
LINE
  5
1F5
330
1F
100
AcDbEntity
  8
0
  6
Continuous
 62
     7
370
    15
100
AcDbLine
 10
38.2273162889
 20
248.3359110745
 30
0.0
 11
118.5297529808
 21
248.3359110745
 31
0.0
  0
ELLIPSE
  5
1F6
330
1F
100
AcDbEntity
  8
0
  6
Continuous
 62
     7
370
    15
100
AcDbEllipse
 10
118.5273155462
 20
246.3346919859
 30
0.0
 11
-1.41593708919838
 21
-1.415937089198394
 31
0.0
210
0.0
220
0.0
230
1.0
 40
0.998782766
 41
2.356803477777938
 42
3.926381829401637
  0
LINE
  5
1F7
330
1F
100
AcDbEntity
  8
0
  6
Continuous
 62
     7
370
    15
100
AcDbLine
 10
120.5285346348
 20
246.3371294204
 30
0.0
 11
120.5285346348
 21
165.4346927285
 31
0.0
  0
ELLIPSE
  5
1F8
330
1F
100
AcDbEntity
  8
0
  6
Continuous
 62
     7
370
    15
100
AcDbEllipse
 10
118.5273155462
 20
165.4371301631
 30
0.0
 11
-1.415937089198394
 21
1.415937089198394
 31
0.0
210
0.0
220
0.0
230
0.9999999999999998
 40
0.998782766
 41
2.356803477777952
 42
3.926381829401662
  0
LINE
  5
1F9
330
1F
100
AcDbEntity
  8
0
  6
Continuous
 62
     7
370
    15
100
AcDbLine
 10
118.5297529808
 20
163.4359110745
 30
0.0
 11
38.2273162889
 21
163.4359110745
 31
0.0
  0
ELLIPSE
  5
1FA
330
1F
100
AcDbEntity
  8
0
  6
Continuous
 62
     7
370
    15
100
AcDbEllipse
 10
38.2297537234
 20
165.4371301631
 30
0.0
 11
1.415937089198387
 21
1.415937089198394
 31
0.0
210
0.0
220
0.0
230
0.9999999999999998
 40
0.998782766
 41
2.356803477777954
 42
3.926381829401648
  0
LINE
  5
1FB
330
1F
100
AcDbEntity
  8
0
  6
Continuous
 62
     7
370
    15
100
AcDbLine
 10
36.2285346348
 20
165.4346927285
 30
0.0
 11
36.2285346348
 21
246.3371294204
 31
0.0
  0
LINE
  5
1FC
330
1F
100
AcDbEntity
  8
0
  6
Continuous
 62
     7
370
    15
100
AcDbLine
 10
36.7955647397
 20
249.7676626236
 30
0.0
 11
38.2273162889
 21
248.3359110745
 31
0.0
  0
LINE
  5
1FD
330
1F
100
AcDbEntity
  8
0
  6
Continuous
 62
     7
370
    15
100
AcDbLine
 10
36.2285346348
 20
246.3371294204
 30
0.0
 11
34.7967830857
 21
247.7688809696
 31
0.0
  0
ELLIPSE
  5
1FE
330
1F
100
AcDbEntity
  8
0
  6
Continuous
 62
     7
370
    15
100
AcDbEllipse
 10
36.7980021743
 20
247.766443535
 30
0.0
 11
1.415937089198387
 21
-1.415937089198422
 31
0.0
210
0.0
220
0.0
230
0.9999999999999998
 40
0.998782766
 41
2.35680347777796
 42
3.926381829401669
  0
LINE
  5
1FF
330
1F
100
AcDbEntity
  8
0
  6
Continuous
 62
     7
370
    15
100
AcDbLine
 10
34.7967830857
 20
164.0029411793
 30
0.0
 11
36.2285346348
 21
165.4346927285
 31
0.0
  0
ELLIPSE
  5
200
330
1F
100
AcDbEntity
  8
0
  6
Continuous
 62
     7
370
    15
100
AcDbEllipse
 10
36.7980021743
 20
164.0053786139
 30
0.0
 11
1.415937089198387
 21
1.415937089198394
 31
0.0
210
0.0
220
0.0
230
0.9999999999999998
 40
0.998782766
 41
2.356803477777936
 42
3.926381829401656
  0
LINE
  5
201
330
1F
100
AcDbEntity
  8
0
  6
Continuous
 62
     7
370
    15
100
AcDbLine
 10
121.960286184
 20
247.7688809696
 30
0.0
 11
120.5285346348
 21
246.3371294204
 31
0.0
  0
LINE
  5
202
330
1F
100
AcDbEntity
  8
0
  6
Continuous
 62
     7
370
    15
100
AcDbLine
 10
121.960286184
 20
247.7688809696
 30
0.0
 11
121.960286184
 21
164.0029411793
 31
0.0
  0
LINE
  5
203
330
1F
100
AcDbEntity
  8
0
  6
Continuous
 62
     7
370
    15
100
AcDbLine
 10
120.5285346348
 20
165.4346927285
 30
0.0
 11
121.960286184
 21
164.0029411793
 31
0.0
  0
LINE
  5
204
330
1F
100
AcDbEntity
  8
0
  6
Continuous
 62
     7
370
    15
100
AcDbLine
 10
36.7955647397
 20
249.7676626236
 30
0.0
 11
119.96150453
 21
249.7676626236
 31
0.0
  0
LINE
  5
205
330
1F
100
AcDbEntity
  8
0
  6
Continuous
 62
     7
370
    15
100
AcDbLine
 10
118.5297529808
 20
248.3359110745
 30
0.0
 11
119.96150453
 21
249.7676626236
 31
0.0
  0
LINE
  5
206
330
1F
100
AcDbEntity
  8
0
  6
Continuous
 62
     7
370
    15
100
AcDbLine
 10
34.7967830857
 20
164.0029411793
 30
0.0
 11
34.7967830857
 21
247.7688809696
 31
0.0
  0
ELLIPSE
  5
207
330
1F
100
AcDbEntity
  8
0
  6
Continuous
 62
     7
370
    15
100
AcDbEllipse
 10
119.9590670954
 20
164.0053786139
 30
0.0
 11
-1.415937089198366
 21
1.415937089198422
 31
0.0
210
0.0
220
0.0
230
1.0
 40
0.998782766
 41
2.356803477777984
 42
3.926381829401691
  0
ELLIPSE
  5
208
330
1F
100
AcDbEntity
  8
0
  6
Continuous
 62
     7
370
    15
100
AcDbEllipse
 10
119.9590670954
 20
247.766443535
 30
0.0
 11
-1.41593708919838
 21
-1.415937089198423
 31
0.0
210
0.0
220
0.0
230
1.0
 40
0.998782766
 41
2.356803477777921
 42
3.926381829401642
  0
LINE
  5
209
330
1F
100
AcDbEntity
  8
0
  6
Continuous
 62
     7
370
    15
100
AcDbLine
 10
119.96150453
 20
162.0041595253
 30
0.0
 11
36.7955647397
 21
162.0041595253
 31
0.0
  0
LINE
  5
20A
330
1F
100
AcDbEntity
  8
0
  6
Continuous
 62
     7
370
    15
100
AcDbLine
 10
38.1820065372
 20
163.3906013228
 30
0.0
 11
36.7955647397
 21
162.0041595253
 31
0.0
  0
LINE
  5
20B
330
1F
100
AcDbEntity
  8
0
  6
Continuous
 62
     7
370
    15
100
AcDbLine
 10
119.96150453
 20
162.0041595253
 30
0.0
 11
118.5750627324
 21
163.3906013228
 31
0.0
  0
DIMENSION
  5
20C
330
1F
100
AcDbEntity
  8
COTATION
100
AcDbDimension
  2
*D9
 10
121.960286184
 20
259.7676626236
 30
0.0
 11
78.3785346348
 21
259.7676626236
 31
0.0
 70
   160
 71
     2
 42
-1.0
  3
SLDDIMSTYLE2
100
AcDbAlignedDimension
 13
34.7967830857
 23
247.7688809696
 33
0.0
 14
121.960286184
 24
247.7688809696
 34
0.0
100
AcDbRotatedDimension
  0
DIMENSION
  5
217
330
1F
100
AcDbEntity
  8
COTATION
100
AcDbDimension
  2
*D10
 10
138.064905857
 20
249.7676626236
 30
0.0
 11
138.064905857
 21
205.8859110745
 31
0.0
 70
   160
 71
     2
 42
-1.0
  3
SLDDIMSTYLE2
100
AcDbAlignedDimension
 13
119.96150453
 23
162.0041595253
 33
0.0
 14
119.96150453
 24
249.7676626236
 34
0.0
 50
90.0
100
AcDbRotatedDimension
  0
LINE
  5
221
330
1F
100
AcDbEntity
  8
0
  6
Continuous
 62
     7
370
    15
100
AcDbLine
 10
208.1389057039
 20
241.5840649035
 30
0.0
 11
208.6389057039
 21
241.3509110745
 31
0.0
  0
SPLINE
  5
222
330
1F
100
AcDbEntity
  8
0
  6
Continuous
 62
     7
370
    15
100
AcDbSpline
210
0.0
220
0.0
230
1.0
 70
    24
 71
     1
 72
     4
 73
     2
 74
     0
 42
0.00000001
 43
0.00000001
 40
0.0
 40
0.0
 40
1.0
 40
1.0
 10
208.6389057038812
 20
245.5918186133589
 30
0.0
 10
208.1389057038812
 20
245.9654070411619
 30
0.0
  0
SPLINE
  5
223
330
1F
100
AcDbEntity
  8
0
  6
Continuous
 62
     7
370
    15
100
AcDbSpline
210
0.0
220
0.0
230
1.0
 70
     8
 71
     3
 72
    21
 73
    17
 74
     0
 42
0.00000001
 43
0.00000001
 40
0.0
 40
0.0
 40
0.0
 40
0.0
 40
0.034696549538793
 40
0.1043848577891357
 40
0.1747485494804118
 40
0.2457881087661027
 40
0.2815022780113443
 40
0.3161832685746165
 40
0.3858281430198546
 40
0.4559877816599459
 40
0.5266424179497228
 40
0.5621035400702707
 40
0.6589976472267116
 40
0.7562141278487919
 40
0.8779756708560397
 40
1.0
 40
1.0
 40
1.0
 40
1.0
 10
219.8132171893765
 20
226.9969410710678
 30
0.0
 10
219.8129609050974
 20
227.2582782463019
 30
0.0
 10
219.8121898717128
 20
228.0445133110113
 30
0.0
 10
219.7140405953961
 20
229.359222454919
 30
0.0
 10
219.4520723581945
 20
230.9292119867642
 30
0.0
 10
219.1130221157467
 20
232.2210761275962
 30
0.0
 10
218.77559349911
 20
233.2312832658823
 30
0.0
 10
218.3995566398666
 20
234.216412508559
 30
0.0
 10
217.856643469172
 20
235.4138748045778
 30
0.0
 10
217.0927977151988
 20
236.8027583244813
 30
0.0
 10
216.3697621293504
 20
237.9158953066381
 30
0.0
 10
215.4727204901758
 20
239.1517676914517
 30
0.0
 10
214.3727966752545
 20
240.4855316517487
 30
0.0
 10
212.7206853508447
 20
242.193462539154
 30
0.0
 10
210.8122379252676
 20
243.9083015710737
 30
0.0
 10
209.3638701947091
 20
245.0302431379896
 30
0.0
 10
208.6389057038812
 20
245.5918186133589
 30
0.0
  0
LINE
  5
224
330
1F
100
AcDbEntity
  8
0
  6
Continuous
 62
     7
370
    15
100
AcDbLine
 10
219.8132171894
 20
184.7048810779
 30
0.0
 11
219.8132171894
 21
226.9969410711
 31
0.0
  0
SPLINE
  5
225
330
1F
100
AcDbEntity
  8
0
  6
Continuous
 62
     7
370
    15
100
AcDbSpline
210
0.0
220
0.0
230
1.0
 70
     8
 71
     3
 72
    18
 73
    14
 74
     0
 42
0.00000001
 43
0.00000001
 40
0.0
 40
0.0
 40
0.0
 40
0.0
 40
0.1087637015409074
 40
0.2179006877469354
 40
0.3276158526698823
 40
0.4379620445535135
 40
0.4843654407769387
 40
0.5774983795138977
 40
0.6713387846173066
 40
0.7185748792624495
 40
0.7769428974951903
 40
0.8908659553812519
 40
1.0
 40
1.0
 40
1.0
 40
1.0
 10
208.6389057038811
 20
166.1100035355621
 30
0.0
 10
209.2856167341083
 20
166.6095828088345
 30
0.0
 10
210.5812583522546
 20
167.6104559465441
 30
0.0
 10
212.4317722278178
 20
169.2368549794415
 30
0.0
 10
214.1794910663911
 20
170.9911835291275
 30
0.0
 10
215.4661667394159
 20
172.5314596519296
 30
0.0
 10
216.562464942399
 20
174.0582609941665
 30
0.0
 10
217.487414665767
 20
175.5537086018414
 30
0.0
 10
218.2613887159046
 20
177.1407790724145
 30
0.0
 10
218.8079686264848
 20
178.5397814989062
 30
0.0
 10
219.3081905910655
 20
180.1151720068569
 30
0.0
 10
219.7506279124398
 20
182.2000901122283
 30
0.0
 10
219.792654868553
 20
183.8819874776771
 30
0.0
 10
219.8132171893765
 20
184.7048810778532
 30
0.0
  0
SPLINE
  5
226
330
1F
100
AcDbEntity
  8
0
  6
Continuous
 62
     7
370
    15
100
AcDbSpline
210
0.0
220
0.0
230
1.0
 70
    24
 71
     1
 72
     4
 73
     2
 74
     0
 42
0.00000001
 43
0.00000001
 40
0.0
 40
0.0
 40
1.0
 40
1.0
 10
208.1389057038811
 20
165.7364151077591
 30
0.0
 10
208.6389057038811
 20
166.1100035355621
 30
0.0
  0
LINE
  5
227
330
1F
100
AcDbEntity
  8
0
  6
Continuous
 62
     7
370
    15
100
AcDbLine
 10
208.6389057039
 20
170.3509110745
 30
0.0
 11
208.1389057039
 21
170.1177572454
 31
0.0
  0
LINE
  5
228
330
1F
100
AcDbEntity
  8
0
  6
Continuous
 62
     7
370
    15
100
AcDbLine
 10
208.6389057039
 20
170.3509110745
 30
0.0
 11
208.6389057039
 21
175.3509110745
 31
0.0
  0
LINE
  5
229
330
1F
100
AcDbEntity
  8
0
  6
Continuous
 62
     7
370
    15
100
AcDbLine
 10
208.1389057039
 20
175.5840649035
 30
0.0
 11
208.6389057039
 21
175.3509110745
 31
0.0
  0
LINE
  5
22A
330
1F
100
AcDbEntity
  8
0
  6
Continuous
 62
     7
370
    15
100
AcDbLine
 10
208.6389057039
 20
236.3509110745
 30
0.0
 11
208.1389057039
 21
236.1177572454
 31
0.0
  0
LINE
  5
22B
330
1F
100
AcDbEntity
  8
0
  6
Continuous
 62
     7
370
    15
100
AcDbLine
 10
208.6389057039
 20
236.3509110745
 30
0.0
 11
208.6389057039
 21
241.3509110745
 31
0.0
  0
LINE
  5
22C
330
1F
100
AcDbEntity
  8
0
  6
Continuous
 62
     7
370
    15
100
AcDbLine
 10
219.8132171894
 20
184.7048810779
 30
0.0
 11
221.6389057039
 21
184.7048810779
 31
0.0
  0
SPLINE
  5
22D
330
1F
100
AcDbEntity
  8
0
  6
Continuous
 62
     7
370
    15
100
AcDbSpline
210
0.0
220
0.0
230
1.0
 70
     8
 71
     3
 72
    22
 73
    18
 74
     0
 42
0.00000001
 43
0.00000001
 40
0.0
 40
0.0
 40
0.0
 40
0.0
 40
0.0337682194454731
 40
0.1015953990337782
 40
0.1700753938962412
 40
0.2392097746914975
 40
0.2739655401503274
 40
0.3184885769788218
 40
0.4081203565469544
 40
0.4984257423335227
 40
0.5437328518948938
 40
0.6288744674855518
 40
0.7142667202439524
 40
0.8567818212827657
 40
0.9282967723525506
 40
0.9999976676264111
 40
1.0
 40
1.0
 40
1.0
 40
1.0
 10
221.6389057038811
 20
184.7048810778532
 30
0.0
 10
221.6383743266298
 20
184.4152939615669
 30
0.0
 10
221.6367756197754
 20
183.5440392991275
 30
0.0
 10
221.525700765732
 20
182.0873783529402
 30
0.0
 10
221.2347279569552
 20
180.3478479320504
 30
0.0
 10
220.8589510033092
 20
178.91636613767
 30
0.0
 10
220.4558369018709
 20
177.7093489821588
 30
0.0
 10
219.9302443320394
 20
176.3595993601255
 30
0.0
 10
219.0891028597853
 20
174.625544720501
 30
0.0
 10
218.0754807830576
 20
172.9796659357944
 30
0.0
 10
216.9732665529944
 20
171.4426912354311
 30
0.0
 10
215.800544879675
 20
170.0111194958494
 30
0.0
 10
213.9520999112709
 20
168.0678334599952
 30
0.0
 10
212.0334304975393
 20
166.3629874360036
 30
0.0
 10
210.1179341124628
 20
164.8435596731314
 30
0.0
 10
209.1351695741063
 20
164.1114680778799
 30
0.0
 10
208.6389218459034
 20
163.7509228023326
 30
0.0
 10
208.6389057038811
 20
163.7509110744605
 30
0.0
  0
SPLINE
  5
22E
330
1F
100
AcDbEntity
  8
0
  6
Continuous
 62
     7
370
    15
100
AcDbSpline
210
0.0
220
0.0
230
1.0
 70
    24
 71
     3
 72
    13
 73
     9
 74
     0
 42
0.00000001
 43
0.00000001
 40
0.0
 40
0.0
 40
0.0
 40
0.0
 40
0.1675166412566381
 40
0.334748311810015
 40
0.5090675918715845
 40
0.7116829970540685
 40
0.9547692784646908
 40
1.0
 40
1.0
 40
1.0
 40
1.0
 10
208.6389057038811
 20
163.7509110744605
 30
0.0
 10
208.6389057038811
 20
163.7702310977244
 30
0.0
 10
208.6389057038811
 20
163.8088382780211
 30
0.0
 10
208.6389057038811
 20
164.1077615011565
 30
0.0
 10
208.6389057038811
 20
164.5586337928192
 30
0.0
 10
208.6389057038811
 20
165.1889407363367
 30
0.0
 10
208.6389057038811
 20
165.7370541394685
 30
0.0
 10
208.6389057038811
 20
166.0594297524319
 30
0.0
 10
208.6389057038811
 20
166.1100035355621
 30
0.0
  0
SPLINE
  5
22F
330
1F
100
AcDbEntity
  8
0
  6
Continuous
 62
     7
370
    15
100
AcDbSpline
210
0.0
220
0.0
230
1.0
 70
    24
 71
     3
 72
    24
 73
    20
 74
     0
 42
0.00000001
 43
0.00000001
 40
0.0
 40
0.0
 40
0.0
 40
0.0
 40
0.0373441468060449
 40
0.1123753080324271
 40
0.197616438969213
 40
0.2453241951686043
 40
0.3029675324995015
 40
0.3500624587875877
 40
0.4290959931935592
 40
0.5000203674780205
 40
0.5332644154502276
 40
0.6274128915226157
 40
0.675142173486103
 40
0.7235538904558905
 40
0.7562133387225668
 40
0.8210102730487937
 40
0.8840919772989909
 40
0.9151596365952971
 40
0.9999999999999999
 40
0.9999999999999999
 40
0.9999999999999999
 40
0.9999999999999999
 10
208.6389057038812
 20
245.5918186133589
 30
0.0
 10
208.6389057038812
 20
245.6337171989431
 30
0.0
 10
208.6389057038812
 20
245.7597976389542
 30
0.0
 10
208.6389057038812
 20
245.9810288954542
 30
0.0
 10
208.6389057038812
 20
246.2113389985605
 30
0.0
 10
208.6389057038812
 20
246.4185929419257
 30
0.0
 10
208.6389057038812
 20
246.5813817806641
 30
0.0
 10
208.6389057038812
 20
246.7728296911855
 30
0.0
 10
208.6389057038812
 20
246.97081998474
 30
0.0
 10
208.6389057038812
 20
247.1439654399806
 30
0.0
 10
208.6389057038812
 20
247.3208715075428
 30
0.0
 10
208.6389057038812
 20
247.4649991335635
 30
0.0
 10
208.6389057038812
 20
247.6018169919863
 30
0.0
 10
208.6389057038812
 20
247.6844432279587
 30
0.0
 10
208.6389057038812
 20
247.7673166960202
 30
0.0
 10
208.6389057038812
 20
247.8437414623693
 30
0.0
 10
208.6389057038812
 20
247.8973965052486
 30
0.0
 10
208.6389057038812
 20
247.9400838453126
 30
0.0
 10
208.6389057038812
 20
247.946335266538
 30
0.0
 10
208.6389057038812
 20
247.9509110744605
 30
0.0
  0
SPLINE
  5
230
330
1F
100
AcDbEntity
  8
0
  6
Continuous
 62
     7
370
    15
100
AcDbSpline
210
0.0
220
0.0
230
1.0
 70
     8
 71
     3
 72
    22
 73
    18
 74
     0
 42
0.00000001
 43
0.00000001
 40
0.0
 40
0.0
 40
0.0
 40
0.0
 40
0.0000023323708018
 40
0.0253286672823967
 40
0.1322978069866637
 40
0.2396558742186022
 40
0.3476226177706515
 40
0.4562575390958438
 40
0.5396161822299569
 40
0.6179998868223949
 40
0.6907496013857036
 40
0.7260347799688275
 40
0.7597686604553312
 40
0.8275723634093206
 40
0.8960462698345941
 40
0.9652164212614474
 40
1.0
 40
1.0
 40
1.0
 40
1.0
 10
208.6389057038812
 20
247.9509110744605
 30
0.0
 10
208.6389218459034
 20
247.9508993465884
 30
0.0
 10
208.8142181199292
 20
247.8235390791687
 30
0.0
 10
209.7270264672324
 20
247.1544288820083
 30
0.0
 10
211.3517517731209
 20
245.9023453675873
 30
0.0
 10
213.4432690476628
 20
244.1015892956321
 30
0.0
 10
215.4119550694479
 20
242.144206591974
 30
0.0
 10
217.0656592166879
 20
240.1728618735721
 30
0.0
 10
218.3812928391573
 20
238.2633254652258
 30
0.0
 10
219.3752171300303
 20
236.5143316811033
 30
0.0
 10
220.0432060676779
 20
235.0607046375069
 30
0.0
 10
220.4777939194812
 20
233.9255304261458
 30
0.0
 10
220.8501245642651
 20
232.8130211617404
 30
0.0
 10
221.2238027948462
 20
231.4020241176175
 30
0.0
 10
221.520179429365
 20
229.6633753957848
 30
0.0
 10
221.6364064826009
 20
228.1867256331437
 30
0.0
 10
221.638279110639
 20
227.2952383735297
 30
0.0
 10
221.6389057038811
 20
226.9969410710678
 30
0.0
  0
LINE
  5
231
330
1F
100
AcDbEntity
  8
0
  6
Continuous
 62
     7
370
    15
100
AcDbLine
 10
219.8132171894
 20
226.9969410711
 30
0.0
 11
221.6389057039
 21
226.9969410711
 31
0.0
  0
SPLINE
  5
232
330
1F
100
AcDbEntity
  8
0
  6
Continuous
 62
     7
370
    15
100
AcDbSpline
210
0.0
220
0.0
230
1.0
 70
     8
 71
     3
 72
     9
 73
     5
 74
     0
 42
0.00000001
 43
0.00000001
 40
0.0
 40
0.0
 40
0.0
 40
0.0
 40
0.2766895497524369
 40
1.0
 40
1.0
 40
1.0
 40
1.0
 10
208.1389057038393
 20
248.3112208261197
 30
0.0
 10
208.1851286952071
 20
248.2781412983776
 30
0.0
 10
208.3521859310485
 20
248.1585866286341
 30
0.0
 10
208.5185632502317
 20
248.0380769699456
 30
0.0
 10
208.6389057038811
 20
247.9509110744605
 30
0.0
  0
SPLINE
  5
233
330
1F
100
AcDbEntity
  8
0
  6
Continuous
 62
     7
370
    15
100
AcDbSpline
210
0.0
220
0.0
230
1.0
 70
    24
 71
     3
 72
    12
 73
     8
 74
     0
 42
0.00000001
 43
0.00000001
 40
0.0
 40
0.0
 40
0.0
 40
0.0
 40
0.3038549676255391
 40
0.5335341351834171
 40
0.7242856282431666
 40
0.9159790861839905
 40
1.0
 40
1.0
 40
1.0
 40
1.0
 10
208.1389057038812
 20
245.9654070411619
 30
0.0
 10
208.1389057038812
 20
246.3060283457841
 30
0.0
 10
208.1389057038812
 20
246.9041199110028
 30
0.0
 10
208.1389057038812
 20
247.6245340919333
 30
0.0
 10
208.1389057038812
 20
248.0887061109893
 30
0.0
 10
208.1389057038812
 20
248.2903510277742
 30
0.0
 10
208.1389057038812
 20
248.3063464098288
 30
0.0
 10
208.1389057038812
 20
248.3112208260897
 30
0.0
  0
SPLINE
  5
234
330
1F
100
AcDbEntity
  8
0
  6
Continuous
 62
     7
370
    15
100
AcDbSpline
210
0.0
220
0.0
230
1.0
 70
     8
 71
     3
 72
     9
 73
     5
 74
     0
 42
0.00000001
 43
0.00000001
 40
0.0
 40
0.0
 40
0.0
 40
0.0
 40
0.7233104512345042
 40
1.0
 40
1.0
 40
1.0
 40
1.0
 10
208.6389057038811
 20
163.7509110744605
 30
0.0
 10
208.5185632500774
 20
163.6637451788639
 30
0.0
 10
208.3521859309078
 20
163.5432355201858
 30
0.0
 10
208.1851286950802
 20
163.4236808504526
 30
0.0
 10
208.1389057038811
 20
163.3906013228312
 30
0.0
  0
SPLINE
  5
235
330
1F
100
AcDbEntity
  8
0
  6
Continuous
 62
     7
370
    15
100
AcDbSpline
210
0.0
220
0.0
230
1.0
 70
    24
 71
     3
 72
    27
 73
    23
 74
     0
 42
0.00000001
 43
0.00000001
 40
0.0
 40
0.0
 40
0.0
 40
0.0
 40
0.0416004399975277
 40
0.1258241988541896
 40
0.1688723807251075
 40
0.2522443730774205
 40
0.294527166853388
 40
0.3373655792404689
 40
0.3806242483928752
 40
0.4241284008355368
 40
0.4683445412586153
 40
0.5127819459122711
 40
0.5629211352475388
 40
0.6133299121704671
 40
0.6645135932707379
 40
0.715936270032571
 40
0.7581507841937671
 40
0.8004806186573686
 40
0.8458438063632968
 40
0.8972114856234541
 40
0.9586707337879279
 40
1.0
 40
1.0
 40
1.0
 40
1.0
 10
208.1389057038811
 20
163.3906013228312
 30
0.0
 10
208.1389057038811
 20
163.3917997024285
 30
0.0
 10
208.1389057038811
 20
163.3954243071866
 30
0.0
 10
208.1389057038811
 20
163.4295296204544
 30
0.0
 10
208.1389057038811
 20
163.499808430127
 30
0.0
 10
208.1389057038811
 20
163.5792459531446
 30
0.0
 10
208.1389057038811
 20
163.6782094583002
 30
0.0
 10
208.1389057038811
 20
163.7630738870318
 30
0.0
 10
208.1389057038811
 20
163.85750374726
 30
0.0
 10
208.1389057038811
 20
163.9609752718549
 30
0.0
 10
208.1389057038811
 20
164.0726861864337
 30
0.0
 10
208.1389057038811
 20
164.196842736776
 30
0.0
 10
208.1389057038811
 20
164.333210016558
 30
0.0
 10
208.1389057038811
 20
164.4822147761899
 30
0.0
 10
208.1389057038811
 20
164.6378593748658
 30
0.0
 10
208.1389057038811
 20
164.7894052913033
 30
0.0
 10
208.1389057038811
 20
164.9345944523485
 30
0.0
 10
208.1389057038811
 20
165.0753831465698
 30
0.0
 10
208.1389057038811
 20
165.2279215425978
 30
0.0
 10
208.1389057038811
 20
165.4031560672935
 30
0.0
 10
208.1389057038811
 20
165.575197297082
 30
0.0
 10
208.1389057038811
 20
165.6901819935078
 30
0.0
 10
208.1389057038811
 20
165.7364151077591
 30
0.0
  0
LINE
  5
236
330
1F
100
AcDbEntity
  8
0
  6
Continuous
 62
     7
370
    15
100
AcDbLine
 10
221.6389057039
 20
226.9969410711
 30
0.0
 11
221.6389057039
 21
184.7048810779
 31
0.0
  0
LINE
  5
237
330
1F
100
AcDbEntity
  8
0
  6
Continuous
 62
     7
370
    15
100
AcDbLine
 10
180.8038294596
 20
200.6009110745
 30
0.0
 11
180.3673695129
 21
200.6009110745
 31
0.0
  0
LINE
  5
238
330
1F
100
AcDbEntity
  8
0
  6
Continuous
 62
     7
370
    15
100
AcDbLine
 10
180.8038294596
 20
200.6009110745
 30
0.0
 11
180.8038294596
 21
199.6009110745
 31
0.0
  0
LINE
  5
239
330
1F
100
AcDbEntity
  8
0
  6
Continuous
 62
     7
370
    15
100
AcDbLine
 10
180.8038294596
 20
199.6009110745
 30
0.0
 11
180.3673695129
 21
199.6009110745
 31
0.0
  0
LINE
  5
23A
330
1F
100
AcDbEntity
  8
0
  6
Continuous
 62
     7
370
    15
100
AcDbLine
 10
180.8038294596
 20
211.1009110745
 30
0.0
 11
180.8038294596
 21
212.1009110745
 31
0.0
  0
LINE
  5
23B
330
1F
100
AcDbEntity
  8
0
  6
Continuous
 62
     7
370
    15
100
AcDbLine
 10
180.8038294596
 20
212.1009110745
 30
0.0
 11
180.3673695129
 21
212.1009110745
 31
0.0
  0
LINE
  5
23C
330
1F
100
AcDbEntity
  8
0
  6
Continuous
 62
     7
370
    15
100
AcDbLine
 10
180.8038294596
 20
211.1009110745
 30
0.0
 11
180.3673695129
 21
211.1009110745
 31
0.0
  0
LINE
  5
23D
330
1F
100
AcDbEntity
  8
0
  6
Continuous
 62
     7
370
    15
100
AcDbLine
 10
167.1389057039
 20
164.0029411793
 30
0.0
 11
208.1389057039
 21
165.4346927285
 31
0.0
  0
LINE
  5
23E
330
1F
100
AcDbEntity
  8
0
  6
Continuous
 62
     7
370
    15
100
AcDbLine
 10
208.1389057039
 20
165.4346927285
 30
0.0
 11
208.1389057039
 21
163.4359110745
 31
0.0
  0
LINE
  5
23F
330
1F
100
AcDbEntity
  8
0
  6
Continuous
 62
     7
370
    15
100
AcDbLine
 10
208.1389057039
 20
163.4359110745
 30
0.0
 11
167.1389057039
 21
162.0041595253
 31
0.0
  0
LINE
  5
240
330
1F
100
AcDbEntity
  8
0
  6
Continuous
 62
     7
370
    15
100
AcDbLine
 10
167.1389057039
 20
162.0041595253
 30
0.0
 11
167.1389057039
 21
164.0029411793
 31
0.0
  0
LINE
  5
241
330
1F
100
AcDbEntity
  8
0
  6
Continuous
 62
     7
370
    15
100
AcDbLine
 10
208.1389057039
 20
246.3371294204
 30
0.0
 11
167.1389057039
 21
247.7688809696
 31
0.0
  0
LINE
  5
242
330
1F
100
AcDbEntity
  8
0
  6
Continuous
 62
     7
370
    15
100
AcDbLine
 10
208.1389057039
 20
165.4346927285
 30
0.0
 11
208.1389057039
 21
246.3371294204
 31
0.0
  0
LINE
  5
243
330
1F
100
AcDbEntity
  8
0
  6
Continuous
 62
     7
370
    15
100
AcDbLine
 10
167.1389057039
 20
164.0029411793
 30
0.0
 11
167.1389057039
 21
247.7688809696
 31
0.0
  0
LINE
  5
244
330
1F
100
AcDbEntity
  8
0
  6
Continuous
 62
     7
370
    15
100
AcDbLine
 10
167.1389057039
 20
249.7676626236
 30
0.0
 11
208.1389057039
 21
248.3359110745
 31
0.0
  0
LINE
  5
245
330
1F
100
AcDbEntity
  8
0
  6
Continuous
 62
     7
370
    15
100
AcDbLine
 10
208.1389057039
 20
248.3359110745
 30
0.0
 11
208.1389057039
 21
246.3371294204
 31
0.0
  0
LINE
  5
246
330
1F
100
AcDbEntity
  8
0
  6
Continuous
 62
     7
370
    15
100
AcDbLine
 10
167.1389057039
 20
247.7688809696
 30
0.0
 11
167.1389057039
 21
249.7676626236
 31
0.0
  0
DIMENSION
  5
247
330
1F
100
AcDbEntity
  8
COTATION
100
AcDbDimension
  2
*D11
 10
208.1389057039
 20
152.0041595253
 30
0.0
 11
187.6389057039
 21
152.0041595253
 31
0.0
 70
   160
 71
     2
 42
-1.0
  3
SLDDIMSTYLE2
100
AcDbAlignedDimension
 13
167.1389057039
 23
162.0041595253
 33
0.0
 14
208.1389057039
 24
165.4346927285
 34
0.0
100
AcDbRotatedDimension
  0
DIMENSION
  5
251
330
1F
100
AcDbEntity
  8
COTATION
100
AcDbDimension
  2
*D12
 10
221.6389057039
 20
259.7676626236
 30
0.0
 11
194.3889057039
 21
259.7676626236
 31
0.0
 70
   160
 71
     2
 42
-1.0
  3
SLDDIMSTYLE2
100
AcDbAlignedDimension
 13
167.1389057039
 23
249.7676626236
 33
0.0
 14
221.6389057039
 24
226.9969410711
 34
0.0
100
AcDbRotatedDimension
  0
SPLINE
  5
25B
330
1F
100
AcDbEntity
  8
0
  6
Continuous
 62
     7
370
    15
100
AcDbSpline
210
0.0
220
0.0
230
1.0
 70
     8
 71
     3
 72
     9
 73
     5
 74
     0
 42
0.00000001
 43
0.00000001
 40
0.0
 40
0.0
 40
0.0
 40
0.0
 40
0.276689549752437
 40
1.0
 40
1.0
 40
1.0
 40
1.0
 10
38.14066827910482
 20
79.26359999148822
 30
0.0
 10
38.14461562535806
 20
79.21737700012038
 30
0.0
 10
38.15888196196809
 20
79.05031976427904
 30
0.0
 10
38.17306585763595
 20
78.88394244509578
 30
0.0
 10
38.18332521759773
 20
78.76359999144634
 30
0.0
  0
SPLINE
  5
25C
330
1F
100
AcDbEntity
  8
0
  6
Continuous
 62
     7
370
    15
100
AcDbSpline
210
0.0
220
0.0
230
1.0
 70
    24
 71
     3
 72
    24
 73
    20
 74
     0
 42
0.00000001
 43
0.00000001
 40
0.0
 40
0.0
 40
0.0
 40
0.0
 40
0.0373441468060449
 40
0.1123753080324271
 40
0.197616438969213
 40
0.2453241951686043
 40
0.3029675324995015
 40
0.3500624587875877
 40
0.4290959931935592
 40
0.5000203674780205
 40
0.5332644154502276
 40
0.6274128915226157
 40
0.675142173486103
 40
0.7235538904558905
 40
0.7562133387225668
 40
0.8210102730487937
 40
0.8840919772989909
 40
0.9151596365952971
 40
0.9999999999999999
 40
0.9999999999999999
 40
0.9999999999999999
 40
0.9999999999999999
 10
36.27853463483767
 20
78.76359999144634
 30
0.0
 10
36.27904634735778
 20
78.76359999144634
 30
0.0
 10
36.2805861831015
 20
78.76359999144634
 30
0.0
 10
36.2993335282732
 20
78.76359999144634
 30
0.0
 10
36.33906592088245
 20
78.76359999144634
 30
0.0
 10
36.39210209101695
 20
78.76359999144634
 30
0.0
 10
36.44508532593024
 20
78.76359999144634
 30
0.0
 10
36.5218970923566
 20
78.76359999144634
 30
0.0
 10
36.62127862715641
 20
78.76359999144633
 30
0.0
 10
36.73281132757901
 20
78.76359999144633
 30
0.0
 10
36.86780532937696
 20
78.76359999144633
 30
0.0
 10
37.00278382450429
 20
78.76359999144633
 30
0.0
 10
37.1669236753266
 20
78.76359999144633
 30
0.0
 10
37.28574791587538
 20
78.76359999144633
 30
0.0
 10
37.42694701508958
 20
78.76359999144633
 30
0.0
 10
37.59066985847861
 20
78.76359999144633
 30
0.0
 10
37.76119339231708
 20
78.76359999144633
 30
0.0
 10
37.95770875800873
 20
78.76359999144633
 30
0.0
 10
38.08797509900931
 20
78.76359999144633
 30
0.0
 10
38.18332521759773
 20
78.76359999144633
 30
0.0
  0
SPLINE
  5
25D
330
1F
100
AcDbEntity
  8
0
  6
Continuous
 62
     7
370
    15
100
AcDbSpline
210
0.0
220
0.0
230
1.0
 70
    24
 71
     1
 72
     4
 73
     2
 74
     0
 42
0.00000001
 43
0.00000001
 40
0.0
 40
0.0
 40
1.0
 40
1.0
 10
36.27853463483767
 20
78.76359999144634
 30
0.0
 10
36.23479030307471
 20
79.26359999144633
 30
0.0
  0
SPLINE
  5
25E
330
1F
100
AcDbEntity
  8
0
  6
Continuous
 62
     7
370
    15
100
AcDbSpline
210
0.0
220
0.0
230
1.0
 70
    24
 71
     3
 72
    12
 73
     8
 74
     0
 42
0.00000001
 43
0.00000001
 40
0.0
 40
0.0
 40
0.0
 40
0.0
 40
0.3038549676255391
 40
0.5335341351834171
 40
0.7242856282431666
 40
0.9159790861839905
 40
1.0
 40
1.0
 40
1.0
 40
1.0
 10
36.23479030307471
 20
79.26359999144633
 30
0.0
 10
36.26655642655341
 20
79.26359999144633
 30
0.0
 10
36.32233406070163
 20
79.26359999144634
 30
0.0
 10
36.7310858234389
 20
79.26359999144633
 30
0.0
 10
37.24193209320762
 20
79.26359999144633
 30
0.0
 10
37.73982325472473
 20
79.26359999144633
 30
0.0
 10
38.04704564436121
 20
79.26359999144633
 30
0.0
 10
38.14066827911005
 20
79.26359999144633
 30
0.0
  0
SPLINE
  5
25F
330
1F
100
AcDbEntity
  8
0
  6
Continuous
 62
     7
370
    15
100
AcDbSpline
210
0.0
220
0.0
230
1.0
 70
    24
 71
     1
 72
     4
 73
     2
 74
     0
 42
0.00000001
 43
0.00000001
 40
0.0
 40
0.0
 40
1.0
 40
1.0
 10
120.5222789666006
 20
79.26359999144631
 30
0.0
 10
120.4785346348377
 20
78.76359999144631
 30
0.0
  0
SPLINE
  5
260
330
1F
100
AcDbEntity
  8
0
  6
Continuous
 62
     7
370
    15
100
AcDbSpline
210
0.0
220
0.0
230
1.0
 70
    24
 71
     3
 72
    27
 73
    23
 74
     0
 42
0.00000001
 43
0.00000001
 40
0.0
 40
0.0
 40
0.0
 40
0.0
 40
0.0413053088498496
 40
0.1249346322128758
 40
0.1676814089839317
 40
0.250530520600678
 40
0.2924416506734411
 40
0.3349734592436777
 40
0.377963731395021
 40
0.4211967943708849
 40
0.4651327383172184
 40
0.5092866040550762
 40
0.5592856886686715
 40
0.609552006144338
 40
0.6605846705042558
 40
0.711852995444524
 40
0.7541292152858577
 40
0.7965201599629178
 40
0.8419469097534787
 40
0.893383137247634
 40
0.9549178599425432
 40
1.0
 40
1.0
 40
1.0
 40
1.0
 10
118.5737440520776
 20
78.7635999914463
 30
0.0
 10
118.6200947830493
 20
78.7635999914463
 30
0.0
 10
118.7602901159978
 20
78.7635999914463
 30
0.0
 10
118.9467513637452
 20
78.7635999914463
 30
0.0
 10
119.1709031275197
 20
78.7635999914463
 30
0.0
 10
119.3425305515763
 20
78.7635999914463
 30
0.0
 10
119.5023959694687
 20
78.7635999914463
 30
0.0
 10
119.6179219543662
 20
78.7635999914463
 30
0.0
 10
119.7277120663636
 20
78.7635999914463
 30
0.0
 10
119.8313073988919
 20
78.7635999914463
 30
0.0
 10
119.9280494940603
 20
78.7635999914463
 30
0.0
 10
120.0213607268268
 20
78.7635999914463
 30
0.0
 10
120.1094832316535
 20
78.7635999914463
 30
0.0
 10
120.1912419428197
 20
78.7635999914463
 30
0.0
 10
120.2630218434704
 20
78.76359999144631
 30
0.0
 10
120.320972802996
 20
78.76359999144631
 30
0.0
 10
120.3669447676526
 20
78.76359999144631
 30
0.0
 10
120.4036704326067
 20
78.76359999144631
 30
0.0
 10
120.4350836890308
 20
78.76359999144631
 30
0.0
 10
120.4608461447486
 20
78.76359999144631
 30
0.0
 10
120.4760925065315
 20
78.76359999144631
 30
0.0
 10
120.4778088794385
 20
78.76359999144631
 30
0.0
 10
120.4785346348377
 20
78.76359999144631
 30
0.0
  0
SPLINE
  5
261
330
1F
100
AcDbEntity
  8
0
  6
Continuous
 62
     7
370
    15
100
AcDbSpline
210
0.0
220
0.0
230
1.0
 70
     8
 71
     3
 72
     9
 73
     5
 74
     0
 42
0.00000001
 43
0.00000001
 40
0.0
 40
0.0
 40
0.0
 40
0.0
 40
0.7233104512158918
 40
1.0
 40
1.0
 40
1.0
 40
1.0
 10
118.5737440520776
 20
78.76359999144631
 30
0.0
 10
118.5840034120531
 20
78.883942445257
 30
0.0
 10
118.598187307721
 20
79.0503197644405
 30
0.0
 10
118.6124536443311
 20
79.21737700028206
 30
0.0
 10
118.6164009905706
 20
79.26359999148819
 30
0.0
  0
SPLINE
  5
262
330
1F
100
AcDbEntity
  8
0
  6
Continuous
 62
     7
370
    15
100
AcDbSpline
210
0.0
220
0.0
230
1.0
 70
    24
 71
     3
 72
    13
 73
     9
 74
     0
 42
0.00000001
 43
0.00000001
 40
0.0
 40
0.0
 40
0.0
 40
0.0
 40
0.16871360505843
 40
0.3371498165535209
 40
0.5125737786819768
 40
0.7157780916529162
 40
0.958533225962975
 40
1.0
 40
1.0
 40
1.0
 40
1.0
 10
118.6164009905706
 20
79.26359999148819
 30
0.0
 10
118.8054521791299
 20
79.26359999147049
 30
0.0
 10
119.183243724275
 20
79.26359999143511
 30
0.0
 10
119.6883799364295
 20
79.26359999144942
 30
0.0
 10
120.1071509894621
 20
79.2635999914453
 30
0.0
 10
120.4168284135972
 20
79.26359999144667
 30
0.0
 10
120.5170599615747
 20
79.2635999914463
 30
0.0
 10
120.5216144814226
 20
79.26359999144631
 30
0.0
 10
120.5222789666006
 20
79.26359999144631
 30
0.0
  0
LINE
  5
263
330
1F
100
AcDbEntity
  8
0
  6
Continuous
 62
     7
370
    15
100
AcDbLine
 10
118.5737440521
 20
78.7635999914
 30
0.0
 11
38.1833252176
 21
78.7635999914
 31
0.0
  0
SPLINE
  5
264
330
1F
100
AcDbEntity
  8
0
  6
Continuous
 62
     7
370
    15
100
AcDbSpline
210
0.0
220
0.0
230
1.0
 70
    24
 71
     3
 72
    21
 73
    17
 74
     0
 42
0.00000001
 43
0.00000001
 40
0.0
 40
0.0
 40
0.0
 40
0.0
 40
0.034696549538793
 40
0.1043848577891357
 40
0.1747485494804119
 40
0.2457881087661028
 40
0.2815022780113444
 40
0.3161832685746166
 40
0.3858281430198548
 40
0.4559877816599461
 40
0.5266424179497229
 40
0.562103540070271
 40
0.658997647226712
 40
0.756214127848792
 40
0.8779756708560397
 40
1.0
 40
1.0
 40
1.0
 40
1.0
 10
37.25616021252604
 20
67.58928850595109
 30
0.0
 10
37.25613779055699
 20
67.58954479023016
 30
0.0
 10
37.25607033387664
 20
67.59031582361479
 30
0.0
 10
37.24748338486564
 20
67.68846509993145
 30
0.0
 10
37.22456413390664
 20
67.95043333713306
 30
0.0
 10
37.19490108132674
 20
68.28948357958083
 30
0.0
 10
37.1653799026218
 20
68.62691219621753
 30
0.0
 10
37.13248094037009
 20
69.00294905546095
 30
0.0
 10
37.08498219265542
 20
69.54586222615553
 30
0.0
 10
37.01815434850033
 20
70.3097079801287
 30
0.0
 10
36.95489693141277
 20
71.03274356597714
 30
0.0
 10
36.87641595727428
 20
71.92978520515172
 30
0.0
 10
36.78018509272648
 20
73.02970902007304
 30
0.0
 10
36.63564408095782
 20
74.68182034448286
 30
0.0
 10
36.46867656628459
 20
76.59026777005994
 30
0.0
 10
36.34196080924396
 20
78.03863550061837
 30
0.0
 10
36.27853463483767
 20
78.76359999144634
 30
0.0
  0
SPLINE
  5
265
330
1F
100
AcDbEntity
  8
0
  6
Continuous
 62
     7
370
    15
100
AcDbSpline
210
0.0
220
0.0
230
1.0
 70
     8
 71
     3
 72
    22
 73
    18
 74
     0
 42
0.00000001
 43
0.00000001
 40
0.0
 40
0.0
 40
0.0
 40
0.0
 40
0.0000023323708018
 40
0.0253286672823967
 40
0.1322978069866637
 40
0.2396558742186022
 40
0.3476226177706513
 40
0.4562575390958438
 40
0.5396161822299569
 40
0.6179998868223949
 40
0.6907496013857036
 40
0.7260347799688275
 40
0.7597686604553312
 40
0.8275723634093206
 40
0.8960462698345941
 40
0.9652164212614474
 40
1.0
 40
1.0
 40
1.0
 40
1.0
 10
38.18332521759773
 20
78.76359999144633
 30
0.0
 10
38.18332659314659
 20
78.76358384942407
 30
0.0
 10
38.19826453492518
 20
78.58828757539828
 30
0.0
 10
38.27595404637248
 20
77.67547922809504
 30
0.0
 10
38.41330336392303
 20
76.05075392220658
 30
0.0
 10
38.58793460395584
 20
73.95923664766475
 30
0.0
 10
38.75007210918805
 20
71.99055062587958
 30
0.0
 10
38.88439532220259
 20
70.33684647863959
 30
0.0
 10
38.99021142211757
 20
69.02121285617025
 30
0.0
 10
39.06969761940904
 20
68.02728856529718
 30
0.0
 10
39.12279566576412
 20
67.35929962764963
 30
0.0
 10
39.15720387068259
 20
66.92471177584635
 30
0.0
 10
39.18660836897316
 20
66.55238113106243
 30
0.0
 10
39.21600873925647
 20
66.17870290048135
 30
0.0
 10
39.23924805904282
 20
65.88232626596252
 30
0.0
 10
39.24834067229777
 20
65.76609921272663
 30
0.0
 10
39.24849722513523
 20
65.7642265846885
 30
0.0
 10
39.24854960870953
 20
65.7635999914464
 30
0.0
  0
ARC
  5
266
330
1F
100
AcDbEntity
  8
0
  6
Continuous
 62
     7
370
    15
100
AcDbCircle
 10
39.2485496087
 20
67.7635999914
 30
0.0
 40
2.0
100
AcDbArc
 50
185.0
 51
270.0
  0
SPLINE
  5
267
330
1F
100
AcDbEntity
  8
0
  6
Continuous
 62
     7
370
    15
100
AcDbSpline
210
0.0
220
0.0
230
1.0
 70
    24
 71
     3
 72
    18
 73
    14
 74
     0
 42
0.00000001
 43
0.00000001
 40
0.0
 40
0.0
 40
0.0
 40
0.0
 40
0.1084489760050398
 40
0.2173812692596362
 40
0.3272376804674716
 40
0.4379557265195733
 40
0.489878679746879
 40
0.576959398386735
 40
0.665200875786567
 40
0.7185742536614846
 40
0.7878288274148629
 40
0.9106590592764311
 40
1.0
 40
1.0
 40
1.0
 40
1.0
 10
120.4785346348377
 20
78.76359999144631
 30
0.0
 10
120.4221164037563
 20
78.11873665935666
 30
0.0
 10
120.3090285062616
 20
76.82613607618349
 30
0.0
 10
120.147282706264
 20
74.97737312245846
 30
0.0
 10
119.9941821043115
 20
73.22742523455743
 30
0.0
 10
119.8790385865502
 20
71.91132880422136
 30
0.0
 10
119.7835213871529
 20
70.81956221929708
 30
0.0
 10
119.7050848581775
 20
69.9230285906618
 30
0.0
 10
119.6384923978922
 20
69.1618732866309
 30
0.0
 10
119.5874509362695
 20
68.57846671067378
 30
0.0
 10
119.5394983292742
 20
68.03036590466394
 30
0.0
 10
119.504560078936
 20
67.63101987593126
 30
0.0
 10
119.5019908900397
 20
67.6016539124709
 30
0.0
 10
119.5009090571493
 20
67.58928850595107
 30
0.0
  0
ARC
  5
268
330
1F
100
AcDbEntity
  8
0
  6
Continuous
 62
     7
370
    15
100
AcDbCircle
 10
117.508519661
 20
67.7635999914
 30
0.0
 40
2.000000000000014
100
AcDbArc
 50
270.0
 51
355.0
  0
SPLINE
  5
269
330
1F
100
AcDbEntity
  8
0
  6
Continuous
 62
     7
370
    15
100
AcDbSpline
210
0.0
220
0.0
230
1.0
 70
     8
 71
     3
 72
    22
 73
    18
 74
     0
 42
0.00000001
 43
0.00000001
 40
0.0
 40
0.0
 40
0.0
 40
0.0
 40
0.0335975048490928
 40
0.1010317397785684
 40
0.1694899648097352
 40
0.2390186446350293
 40
0.2739675225873262
 40
0.3739871684993961
 40
0.441451529684744
 40
0.5094929499377762
 40
0.5437302062142415
 40
0.660802126027886
 40
0.7142454855010231
 40
0.7853887100249215
 40
0.8566830808774729
 40
0.9999976676095456
 40
0.9999999999999999
 40
0.9999999999999999
 40
0.9999999999999999
 40
0.9999999999999999
 10
117.5085196609658
 20
65.76359999144638
 30
0.0
 10
117.5085633495909
 20
65.76411572802117
 30
0.0
 10
117.5086947265433
 20
65.7656666099587
 30
0.0
 10
117.5172941612194
 20
65.87559339321139
 30
0.0
 10
117.5400002906231
 20
66.16520089979622
 30
0.0
 10
117.5696045222182
 20
66.54152655723367
 30
0.0
 10
117.6134449859548
 20
67.09668304400546
 30
0.0
 10
117.6679227733316
 20
67.78341590011509
 30
0.0
 10
117.7455249095276
 20
68.75473761348847
 30
0.0
 10
117.8090999214528
 20
69.54664647657593
 30
0.0
 10
117.8980783586795
 20
70.64993734311493
 30
0.0
 10
117.9903179627777
 20
71.78502494137442
 30
0.0
 10
118.1089516065251
 20
73.22862191756295
 30
0.0
 10
118.2103536258748
 20
74.45283080301081
 30
0.0
 10
118.3656347363298
 20
76.31098750677536
 30
0.0
 10
118.4892201973443
 20
77.77171523456875
 30
0.0
 10
118.5737426765288
 20
78.76358384942411
 30
0.0
 10
118.5737440520776
 20
78.7635999914463
 30
0.0
  0
LINE
  5
26A
330
1F
100
AcDbEntity
  8
0
  6
Continuous
 62
     7
370
    15
100
AcDbLine
 10
117.508519661
 20
65.7635999914
 30
0.0
 11
39.2485496087
 21
65.7635999914
 31
0.0
  0
LINE
  5
26B
330
1F
100
AcDbEntity
  8
0
  6
Continuous
 62
     7
370
    15
100
AcDbLine
 10
35.2690759123
 20
106.7389029845
 30
0.0
 11
35.0069325183
 21
106.5986762357
 31
0.0
  0
LINE
  5
26C
330
1F
100
AcDbEntity
  8
0
  6
Continuous
 62
     7
370
    15
100
AcDbLine
 10
35.0069325183
 20
106.5986762357
 30
0.0
 11
35.2587312211
 21
107.0351361824
 31
0.0
  0
LINE
  5
26D
330
1F
100
AcDbEntity
  8
0
  6
Continuous
 62
     7
370
    15
100
AcDbLine
 10
36.7955647397
 20
120.2635999914
 30
0.0
 11
38.2273162889
 21
79.2635999914
 31
0.0
  0
LINE
  5
26E
330
1F
100
AcDbEntity
  8
0
  6
Continuous
 62
     7
370
    15
100
AcDbLine
 10
118.5297529808
 20
79.2635999914
 30
0.0
 11
119.96150453
 21
120.2635999914
 31
0.0
  0
LINE
  5
26F
330
1F
100
AcDbEntity
  8
0
  6
Continuous
 62
     7
370
    15
100
AcDbLine
 10
38.2273162889
 20
79.2635999914
 30
0.0
 11
118.5297529808
 21
79.2635999914
 31
0.0
  0
LINE
  5
270
330
1F
100
AcDbEntity
  8
0
  6
Continuous
 62
     7
370
    15
100
AcDbLine
 10
36.7955647397
 20
120.2635999914
 30
0.0
 11
119.96150453
 21
120.2635999914
 31
0.0
  0
LINE
  5
271
330
1F
100
AcDbEntity
  8
0
  6
Continuous
 62
     7
370
    15
100
AcDbLine
 10
38.2273162889
 20
79.2635999914
 30
0.0
 11
36.2285346348
 21
79.2635999914
 31
0.0
  0
LINE
  5
272
330
1F
100
AcDbEntity
  8
0
  6
Continuous
 62
     7
370
    15
100
AcDbLine
 10
36.2285346348
 20
79.2635999914
 30
0.0
 11
34.7967830857
 21
120.2635999914
 31
0.0
  0
LINE
  5
273
330
1F
100
AcDbEntity
  8
0
  6
Continuous
 62
     7
370
    15
100
AcDbLine
 10
34.7967830857
 20
120.2635999914
 30
0.0
 11
36.7955647397
 21
120.2635999914
 31
0.0
  0
LINE
  5
274
330
1F
100
AcDbEntity
  8
0
  6
Continuous
 62
     7
370
    15
100
AcDbLine
 10
121.960286184
 20
120.2635999914
 30
0.0
 11
120.5285346348
 21
79.2635999914
 31
0.0
  0
LINE
  5
275
330
1F
100
AcDbEntity
  8
0
  6
Continuous
 62
     7
370
    15
100
AcDbLine
 10
120.5285346348
 20
79.2635999914
 30
0.0
 11
118.5297529808
 21
79.2635999914
 31
0.0
  0
LINE
  5
276
330
1F
100
AcDbEntity
  8
0
  6
Continuous
 62
     7
370
    15
100
AcDbLine
 10
119.96150453
 20
120.2635999914
 30
0.0
 11
121.960286184
 21
120.2635999914
 31
0.0
  0
SPLINE
  5
277
330
1F
100
AcDbEntity
  8
0
  6
Continuous
 62
     7
370
    15
100
AcDbSpline
210
0.0
220
0.0
230
1.0
 70
     8
 71
     3
 72
    20
 73
    16
 74
     0
 42
0.00000001
 43
0.00000001
 40
0.0
 40
0.0
 40
0.0
 40
0.0
 40
0.0039702229322554
 40
0.1192867176143247
 40
0.226469089600309
 40
0.3238657632645316
 40
0.414485158407576
 40
0.4989555771628006
 40
0.5782153518003978
 40
0.6615304966499681
 40
0.7451904485076569
 40
0.8293502464972925
 40
0.9140259251089633
 40
0.9992191499344342
 40
1.0
 40
1.0
 40
1.0
 40
1.0
 10
155.5667975227788
 20
112.4218193434515
 30
0.0
 10
155.5583499141345
 20
112.4089258512228
 30
0.0
 10
155.3045385982279
 20
112.0215364293189
 30
0.0
 10
154.8303459224781
 20
111.2705652390935
 30
0.0
 10
154.188739317771
 20
110.1771707886859
 30
0.0
 10
153.6317322489209
 20
109.1310732772763
 30
0.0
 10
153.1567824924717
 20
108.133282670898
 30
0.0
 10
152.754605137642
 20
107.1755333181301
 30
0.0
 10
152.4119246009909
 20
106.2230618546927
 30
0.0
 10
152.125870218393
 20
105.2574130000916
 30
0.0
 10
151.8932971301825
 20
104.2653408569052
 30
0.0
 10
151.7207134895673
 20
103.2681237679593
 30
0.0
 10
151.6133786499147
 20
102.2782426685917
 30
0.0
 10
151.5792904638777
 20
101.6171183384879
 30
0.0
 10
151.5790349320189
 20
101.2967985994436
 30
0.0
 10
151.5790326111789
 20
101.2938893306954
 30
0.0
  0
SPLINE
  5
278
330
1F
100
AcDbEntity
  8
0
  6
Continuous
 62
     7
370
    15
100
AcDbSpline
210
0.0
220
0.0
230
1.0
 70
    24
 71
     1
 72
     4
 73
     2
 74
     0
 42
0.00000001
 43
0.00000001
 40
0.0
 40
0.0
 40
1.0
 40
1.0
 10
155.7268786624144
 20
112.6624240791567
 30
0.0
 10
155.5672452664503
 20
112.4209450970636
 30
0.0
  0
SPLINE
  5
279
330
1F
100
AcDbEntity
  8
0
  6
Continuous
 62
     7
370
    15
100
AcDbSpline
210
0.0
220
0.0
230
1.0
 70
    24
 71
     1
 72
     4
 73
     2
 74
     0
 42
0.00000001
 43
0.00000001
 40
0.0
 40
0.0
 40
1.0
 40
1.0
 10
151.5781730880267
 20
101.2915570742156
 30
0.0
 10
151.5781730880266
 20
82.0863894333118
 30
0.0
  0
SPLINE
  5
27A
330
1F
100
AcDbEntity
  8
0
  6
Continuous
 62
     7
370
    15
100
AcDbSpline
210
0.0
220
0.0
230
1.0
 70
     8
 71
     3
 72
    19
 73
    15
 74
     0
 42
0.00000001
 43
0.00000001
 40
0.0
 40
0.0
 40
0.0
 40
0.0
 40
0.0557925416818178
 40
0.1395467377196613
 40
0.2278988489017273
 40
0.3164788144892376
 40
0.4050766011423442
 40
0.4933707361868025
 40
0.5797525735635253
 40
0.6635998779195694
 40
0.7567523362737013
 40
0.8547424666363713
 40
0.9603150294024223
 40
1.0
 40
1.0
 40
1.0
 40
1.0
 10
151.5873113122551
 20
82.08615187048835
 30
0.0
 10
151.5886999844327
 20
81.88503715814397
 30
0.0
 10
151.5921732922674
 20
81.38201469010272
 30
0.0
 10
151.6718668481097
 20
80.59144085773252
 30
0.0
 10
151.8172681485172
 20
79.7242212782647
 30
0.0
 10
152.0364287352691
 20
78.89049814502766
 30
0.0
 10
152.3228950324788
 20
78.11329333394227
 30
0.0
 10
152.6764377111822
 20
77.40308466612133
 30
0.0
 10
153.0857285421055
 20
76.78067855427386
 30
0.0
 10
153.5471344609699
 20
76.21480349702077
 30
0.0
 10
154.0714396891491
 20
75.69307670414534
 30
0.0
 10
154.6714926428081
 20
75.21042581008129
 30
0.0
 10
155.1841165812445
 20
74.85990430298554
 30
0.0
 10
155.4923365384896
 20
74.68908410407798
 30
0.0
 10
155.5765435304274
 20
74.64241530546806
 30
0.0
  0
SPLINE
  5
27B
330
1F
100
AcDbEntity
  8
0
  6
Continuous
 62
     7
370
    15
100
AcDbSpline
210
0.0
220
0.0
230
1.0
 70
    24
 71
     1
 72
     4
 73
     2
 74
     0
 42
0.00000001
 43
0.00000001
 40
0.0
 40
0.0
 40
1.0
 40
1.0
 10
155.7543244550141
 20
74.54180175810777
 30
0.0
 10
156.0340786119496
 20
74.38347735866219
 30
0.0
  0
SPLINE
  5
27C
330
1F
100
AcDbEntity
  8
0
  6
Continuous
 62
     7
370
    15
100
AcDbSpline
210
0.0
220
0.0
230
1.0
 70
    24
 71
     1
 72
     4
 73
     2
 74
     0
 42
0.00000001
 43
0.00000001
 40
0.0
 40
0.0
 40
1.0
 40
1.0
 10
156.0423244581054
 20
74.37663499794272
 30
0.0
 10
156.230548481338
 20
74.28450571995289
 30
0.0
  0
SPLINE
  5
27D
330
1F
100
AcDbEntity
  8
0
  6
Continuous
 62
     7
370
    15
100
AcDbSpline
210
0.0
220
0.0
230
1.0
 70
    24
 71
     1
 72
     4
 73
     2
 74
     0
 42
0.00000001
 43
0.00000001
 40
0.0
 40
0.0
 40
1.0
 40
1.0
 10
185.0360646924977
 20
62.37540785107308
 30
0.0
 10
200.0379543215153
 20
67.57985596019755
 30
0.0
  0
SPLINE
  5
27E
330
1F
100
AcDbEntity
  8
0
  6
Continuous
 62
     7
370
    15
100
AcDbSpline
210
0.0
220
0.0
230
1.0
 70
    24
 71
     1
 72
     4
 73
     2
 74
     0
 42
0.00000001
 43
0.00000001
 40
0.0
 40
0.0
 40
1.0
 40
1.0
 10
169.8627049991192
 20
119.766336484966
 30
0.0
 10
155.8732165994881
 20
112.8378572216739
 30
0.0
  0
SPLINE
  5
27F
330
1F
100
AcDbEntity
  8
0
  6
Continuous
 62
     7
370
    15
100
AcDbSpline
210
0.0
220
0.0
230
1.0
 70
     8
 71
     3
 72
    18
 73
    14
 74
     0
 42
0.00000001
 43
0.00000001
 40
0.0
 40
0.0
 40
0.0
 40
0.0
 40
0.1084489760050398
 40
0.2173812692596362
 40
0.3272376804674716
 40
0.4379557265195733
 40
0.489878679746879
 40
0.5769593983867349
 40
0.665200875786567
 40
0.7185742536614846
 40
0.7878288274148629
 40
0.9106590592764312
 40
1.0
 40
1.0
 40
1.0
 40
1.0
 10
185.186397008381
 20
99.3442356713695
 30
0.0
 10
184.9384565339613
 20
99.0309674499904
 30
0.0
 10
184.4414706055033
 20
98.40303488584217
 30
0.0
 10
183.7306484188072
 20
97.41589864674799
 30
0.0
 10
183.0578191727561
 20
96.38246309811188
 30
0.0
 10
182.5517994363537
 20
95.48958470465404
 30
0.0
 10
182.1320312288104
 20
94.64792421086106
 30
0.0
 10
181.7873272238598
 20
93.86464099266006
 30
0.0
 10
181.4946741952299
 20
93.0595621451984
 30
0.0
 10
181.2703629403882
 20
92.30997045117228
 30
0.0
 10
181.0596262352456
 20
91.43414953560304
 30
0.0
 10
180.9060835558987
 20
90.42896021299084
 30
0.0
 10
180.8947927745039
 20
89.69885557690783
 30
0.0
 10
180.8900384574163
 20
89.3914234492557
 30
0.0
  0
ARC
  5
280
330
1F
100
AcDbEntity
  8
0
  6
Continuous
 62
     7
370
    15
100
AcDbCircle
 10
180.2510963945
 20
91.3742476857
 30
0.0
 40
2.083228002922832
100
AcDbArc
 50
250.0454652887
 51
287.8609325799
  0
SPLINE
  5
281
330
1F
100
AcDbEntity
  8
0
  6
Continuous
 62
     7
370
    15
100
AcDbSpline
210
0.0
220
0.0
230
1.0
 70
     8
 71
     3
 72
    22
 73
    18
 74
     0
 42
0.00000001
 43
0.00000001
 40
0.0
 40
0.0
 40
0.0
 40
0.0
 40
0.0335975048490928
 40
0.1010317397785684
 40
0.1694899648097352
 40
0.2390186446350293
 40
0.2739675225873262
 40
0.3739871684993961
 40
0.441451529684744
 40
0.5094929499377762
 40
0.5437302062142415
 40
0.660802126027886
 40
0.7142454855010231
 40
0.7853887100249215
 40
0.8566830808774729
 40
0.9999976676095456
 40
0.9999999999999999
 40
0.9999999999999999
 40
0.9999999999999999
 40
0.9999999999999999
 10
179.5401440665432
 20
89.41608893328409
 30
0.0
 10
179.5403418532194
 20
89.54699669514093
 30
0.0
 10
179.5409366215538
 20
89.94065208682318
 30
0.0
 10
179.5828419677767
 20
90.61485802045242
 30
0.0
 10
179.693261512709
 20
91.44429526690253
 30
0.0
 10
179.8367794013196
 20
92.14789250453771
 30
0.0
 10
180.0485568041269
 20
92.97875432938788
 30
0.0
 10
180.3106143402754
 20
93.79831012522786
 30
0.0
 10
180.6814649237647
 20
94.73463396349446
 30
0.0
 10
180.9839241483733
 20
95.39701973328368
 30
0.0
 10
181.40545500322
 20
96.23777273568585
 30
0.0
 10
181.8393806969809
 20
97.00139284300963
 30
0.0
 10
182.3917126295479
 20
97.87052655433153
 30
0.0
 10
182.8603868595466
 20
98.55739418706978
 30
0.0
 10
183.5722446255123
 20
99.53163665459944
 30
0.0
 10
184.1323839251784
 20
100.2358493359456
 30
0.0
 10
184.5129456460794
 20
100.6973488229792
 30
0.0
 10
184.512951839476
 20
100.6973563335858
 30
0.0
  0
SPLINE
  5
282
330
1F
100
AcDbEntity
  8
0
  6
Continuous
 62
     7
370
    15
100
AcDbSpline
210
0.0
220
0.0
230
1.0
 70
     8
 71
     3
 72
    27
 73
    23
 74
     0
 42
0.00000001
 43
0.00000001
 40
0.0
 40
0.0
 40
0.0
 40
0.0
 40
0.0413053088498496
 40
0.1249346322128758
 40
0.1676814089839317
 40
0.250530520600678
 40
0.2924416506734411
 40
0.3349734592436777
 40
0.377963731395021
 40
0.4211967943708849
 40
0.4651327383172184
 40
0.5092866040550762
 40
0.5592856886686715
 40
0.609552006144338
 40
0.6605846705042558
 40
0.711852995444524
 40
0.7541292152858577
 40
0.7965201599629178
 40
0.8419469097534787
 40
0.893383137247634
 40
0.9549178599425432
 40
1.0
 40
1.0
 40
1.0
 40
1.0
 10
184.512951839476
 20
100.6973563335858
 30
0.0
 10
184.5293392975676
 20
100.6899553627967
 30
0.0
 10
184.5789058328769
 20
100.6675699215713
 30
0.0
 10
184.6448298392322
 20
100.6245296757506
 30
0.0
 10
184.7240794553221
 20
100.5595237298469
 30
0.0
 10
184.7847589130162
 20
100.4981573171392
 30
0.0
 10
184.8412798735506
 20
100.4297135161782
 30
0.0
 10
184.8821244772128
 20
100.3742355859297
 30
0.0
 10
184.9209411435631
 20
100.3152535605056
 30
0.0
 10
184.9575676246281
 20
100.2530928923765
 30
0.0
 10
184.9917711203879
 20
100.1882305664394
 30
0.0
 10
185.024761623113
 20
100.1181851396381
 30
0.0
 10
185.055917633482
 20
100.0433095416632
 30
0.0
 10
185.0848237030254
 20
99.963576369523
 30
0.0
 10
185.1102017302769
 20
99.88231355612824
 30
0.0
 10
185.1306904885053
 20
99.80487344548285
 30
0.0
 10
185.1469440324819
 20
99.73199576611235
 30
0.0
 10
185.1599285158482
 20
99.66237726819683
 30
0.0
 10
185.1710347791665
 20
99.58818578108985
 30
0.0
 10
185.1801431827356
 20
99.50448081815016
 30
0.0
 10
185.1855335856381
 20
99.42189931457187
 30
0.0
 10
185.1861404150989
 20
99.36731587081293
 30
0.0
 10
185.186397008381
 20
99.3442356713695
 30
0.0
  0
SPLINE
  5
283
330
1F
100
AcDbEntity
  8
0
  6
Continuous
 62
     7
370
    15
100
AcDbSpline
210
0.0
220
0.0
230
1.0
 70
     8
 71
     3
 72
    22
 73
    18
 74
     0
 42
0.00000001
 43
0.00000001
 40
0.0
 40
0.0
 40
0.0
 40
0.0
 40
0.0000023323708018
 40
0.0253286672823967
 40
0.1322978069866637
 40
0.2396558742186022
 40
0.3476226177706513
 40
0.4562575390958438
 40
0.5396161822299569
 40
0.6179998868223949
 40
0.6907496013857036
 40
0.7260347799688275
 40
0.7597686604553312
 40
0.8275723634093206
 40
0.8960462698345941
 40
0.9652164212614474
 40
1.0
 40
1.0
 40
1.0
 40
1.0
 10
156.0906466893326
 20
112.5921260062312
 30
0.0
 10
156.0906414685958
 20
112.5921180885652
 30
0.0
 10
156.0339462365199
 20
112.5061352219478
 30
0.0
 10
155.7386871405548
 20
112.0557302835386
 30
0.0
 10
155.2128203167908
 20
111.2264279815931
 30
0.0
 10
154.5350987599093
 20
110.0733849711196
 30
0.0
 10
153.8963874066107
 20
108.8692395635591
 30
0.0
 10
153.3592051257125
 20
107.7094748795447
 30
0.0
 10
152.9314700386143
 20
106.6320176050472
 30
0.0
 10
152.6081673501408
 20
105.6789608042678
 30
0.0
 10
152.3907705906795
 20
104.9121631139259
 30
0.0
 10
152.2492857196769
 20
104.3272774500523
 30
0.0
 10
152.1280430178611
 20
103.7626362173978
 30
0.0
 10
152.0063224130466
 20
103.0622504803478
 30
0.0
 10
151.9097537893254
 20
102.2254248018288
 30
0.0
 10
151.8718760448208
 20
101.5363235468944
 30
0.0
 10
151.8712693206151
 20
101.1311917051945
 30
0.0
 10
151.8710663068401
 20
100.9956320163517
 30
0.0
  0
LINE
  5
284
330
1F
100
AcDbEntity
  8
0
  6
Continuous
 62
     7
370
    15
100
AcDbLine
 10
184.5129518395
 20
100.6973563336
 30
0.0
 11
156.0906466893
 21
112.5921260062
 31
0.0
  0
LINE
  5
285
330
1F
100
AcDbEntity
  8
0
  6
Continuous
 62
     7
370
    15
100
AcDbLine
 10
179.5401440665
 20
89.4160889333
 30
0.0
 11
151.8710663068
 21
100.9956320164
 31
0.0
  0
LINE
  5
286
330
1F
100
AcDbEntity
  8
0
  6
Continuous
 62
     7
370
    15
100
AcDbLine
 10
185.1863970084
 20
67.4472695564
 30
0.0
 11
185.3786396605
 21
67.6206553448
 31
0.0
  0
LINE
  5
287
330
1F
100
AcDbEntity
  8
0
  6
Continuous
 62
     7
370
    15
100
AcDbLine
 10
185.1863970084
 20
65.1767289817
 30
0.0
 11
185.1863970084
 21
67.4472695564
 31
0.0
  0
LINE
  5
288
330
1F
100
AcDbEntity
  8
0
  6
Continuous
 62
     7
370
    15
100
AcDbLine
 10
185.3786396605
 20
65.1383606784
 30
0.0
 11
185.1863970084
 21
65.1767289817
 31
0.0
  0
LINE
  5
289
330
1F
100
AcDbEntity
  8
0
  6
Continuous
 62
     7
370
    15
100
AcDbLine
 10
185.3786396605
 20
63.1487576593
 30
0.0
 11
185.3786396605
 21
65.1383606784
 31
0.0
  0
SPLINE
  5
28A
330
1F
100
AcDbEntity
  8
0
  6
Continuous
 62
     7
370
    15
100
AcDbSpline
210
0.0
220
0.0
230
1.0
 70
    24
 71
     1
 72
     4
 73
     2
 74
     0
 42
0.00000001
 43
0.00000001
 40
0.0
 40
0.0
 40
1.0
 40
1.0
 10
185.1863970083809
 20
63.25089845352508
 30
0.0
 10
185.3786396604916
 20
63.14875765931991
 30
0.0
  0
SPLINE
  5
28B
330
1F
100
AcDbEntity
  8
0
  6
Continuous
 62
     7
370
    15
100
AcDbSpline
210
0.0
220
0.0
230
1.0
 70
     8
 71
     3
 72
    21
 73
    17
 74
     0
 42
0.00000001
 43
0.00000001
 40
0.0
 40
0.0
 40
0.0
 40
0.0
 40
0.069121615900371
 40
0.1389318643601806
 40
0.2098234569979056
 40
0.2814861952284972
 40
0.350640135653319
 40
0.4203860928960638
 40
0.4909592663867572
 40
0.5620728807568951
 40
0.6104491350928374
 40
0.7075157421700072
 40
0.7562006895515284
 40
0.8170202174845724
 40
0.938930896610163
 40
1.0
 40
1.0
 40
1.0
 40
1.0
 10
180.8900384574162
 20
70.18625580835194
 30
0.0
 10
180.8921996703259
 20
69.95047233519712
 30
0.0
 10
180.8965436274934
 20
69.47655636717442
 30
0.0
 10
180.9714003143089
 20
68.78922982571947
 30
0.0
 10
181.0995206374765
 20
68.1231417371365
 30
0.0
 10
181.2815039984435
 20
67.49479416166729
 30
0.0
 10
181.5107865850666
 20
66.90761859259467
 30
0.0
 10
181.7825264045631
 20
66.36234088407515
 30
0.0
 10
182.097013914636
 20
65.85244231847575
 30
0.0
 10
182.4126877188697
 20
65.43112741451137
 30
0.0
 10
182.8001692500546
 20
64.98600718082534
 30
0.0
 10
183.1751289026071
 20
64.62343108212467
 30
0.0
 10
183.5969027479136
 20
64.272334119868
 30
0.0
 10
184.0865567536282
 20
63.90606485775112
 30
0.0
 10
184.6264896223151
 20
63.56027842523743
 30
0.0
 10
185.046289660947
 20
63.32831555546824
 30
0.0
 10
185.1863970083809
 20
63.25089845352507
 30
0.0
  0
LINE
  5
28C
330
1F
100
AcDbEntity
  8
0
  6
Continuous
 62
     7
370
    15
100
AcDbLine
 10
180.8900384574
 20
89.3914234493
 30
0.0
 11
180.8900384574
 21
70.1862558084
 31
0.0
  0
SPLINE
  5
28D
330
1F
100
AcDbEntity
  8
0
  6
Continuous
 62
     7
370
    15
100
AcDbSpline
210
0.0
220
0.0
230
1.0
 70
    24
 71
     1
 72
     4
 73
     2
 74
     0
 42
0.00000001
 43
0.00000001
 40
0.0
 40
0.0
 40
1.0
 40
1.0
 10
185.3786396604917
 20
99.5813939505984
 30
0.0
 10
185.186397008381
 20
99.3442356713695
 30
0.0
  0
LINE
  5
28E
330
1F
100
AcDbEntity
  8
0
  6
Continuous
 62
     7
370
    15
100
AcDbLine
 10
185.3786396605
 20
97.5917909315
 30
0.0
 11
185.3786396605
 21
99.5813939506
 31
0.0
  0
LINE
  5
28F
330
1F
100
AcDbEntity
  8
0
  6
Continuous
 62
     7
370
    15
100
AcDbLine
 10
185.1863970084
 20
97.4184051432
 30
0.0
 11
185.3786396605
 21
97.5917909315
 31
0.0
  0
LINE
  5
290
330
1F
100
AcDbEntity
  8
0
  6
Continuous
 62
     7
370
    15
100
AcDbLine
 10
185.1863970084
 20
97.4184051432
 30
0.0
 11
185.1863970084
 21
95.1478645684
 31
0.0
  0
LINE
  5
291
330
1F
100
AcDbEntity
  8
0
  6
Continuous
 62
     7
370
    15
100
AcDbLine
 10
185.3786396605
 20
95.1094962651
 30
0.0
 11
185.1863970084
 21
95.1478645684
 31
0.0
  0
LINE
  5
292
330
1F
100
AcDbEntity
  8
0
  6
Continuous
 62
     7
370
    15
100
AcDbLine
 10
185.3786396605
 20
67.6206553448
 30
0.0
 11
185.3786396605
 21
95.1094962651
 31
0.0
  0
SPLINE
  5
293
330
1F
100
AcDbEntity
  8
0
  6
Continuous
 62
     7
370
    15
100
AcDbSpline
210
0.0
220
0.0
230
1.0
 70
     8
 71
     3
 72
     9
 73
     5
 74
     0
 42
0.00000001
 43
0.00000001
 40
0.0
 40
0.0
 40
0.0
 40
0.0
 40
0.7233104512158918
 40
1.0
 40
1.0
 40
1.0
 40
1.0
 10
184.5129518394761
 20
100.6973563335858
 30
0.0
 10
184.5591265535578
 20
100.753227247082
 30
0.0
 10
184.6229645832782
 20
100.8304705848524
 30
0.0
 10
184.6870721471129
 20
100.9073686584111
 30
0.0
 10
184.704810040024
 20
100.9286455516864
 30
0.0
  0
SPLINE
  5
294
330
1F
100
AcDbEntity
  8
0
  6
Continuous
 62
     7
370
    15
100
AcDbSpline
210
0.0
220
0.0
230
1.0
 70
     8
 71
     3
 72
    13
 73
     9
 74
     0
 42
0.00000001
 43
0.00000001
 40
0.0
 40
0.0
 40
0.0
 40
0.0
 40
0.16871360505843
 40
0.3371498165535209
 40
0.5125737786819768
 40
0.7157780916529162
 40
0.958533225962975
 40
1.0
 40
1.0
 40
1.0
 40
1.0
 10
184.704810040024
 20
100.9286455516864
 30
0.0
 10
184.7716497287286
 20
100.8918816022914
 30
0.0
 10
184.9052192104396
 20
100.8184141496221
 30
0.0
 10
185.0838118309633
 20
100.607549404688
 30
0.0
 10
185.2318697566439
 20
100.3403434725984
 30
0.0
 10
185.3413572599375
 20
100.0083665347065
 30
0.0
 10
185.3767944635692
 20
99.74701842948113
 30
0.0
 10
185.378404729504
 20
99.60248130552446
 30
0.0
 10
185.3786396604917
 20
99.58139395059841
 30
0.0
  0
SPLINE
  5
295
330
1F
100
AcDbEntity
  8
0
  6
Continuous
 62
     7
370
    15
100
AcDbSpline
210
0.0
220
0.0
230
1.0
 70
     8
 71
     3
 72
     9
 73
     5
 74
     0
 42
0.00000001
 43
0.00000001
 40
0.0
 40
0.0
 40
0.0
 40
0.0
 40
0.276689549752437
 40
1.0
 40
1.0
 40
1.0
 40
1.0
 10
156.2523418794075
 20
112.8360384813236
 30
0.0
 10
156.2373951817377
 20
112.8135934693054
 30
0.0
 10
156.1833754412627
 20
112.7324736292597
 30
0.0
 10
156.1295669403528
 20
112.6510329213429
 30
0.0
 10
156.0906466893326
 20
112.5921260062312
 30
0.0
  0
LINE
  5
296
330
1F
100
AcDbEntity
  8
0
  6
Continuous
 62
     7
370
    15
100
AcDbLine
 10
184.70481004
 20
100.9286455517
 30
0.0
 11
156.2523418794
 21
112.8360384813
 31
0.0
  0
ARC
  5
297
330
1F
100
AcDbEntity
  8
0
  6
Continuous
 62
     7
370
    15
100
AcDbCircle
 10
180.2510963945
 20
72.1690800447
 30
0.0
 40
2.083228002922742
100
AcDbArc
 50
250.0454652887
 51
287.8609325799
  0
LINE
  5
298
330
1F
100
AcDbEntity
  8
0
  6
Continuous
 62
     7
370
    15
100
AcDbLine
 10
179.5401440665
 20
70.2109212924
 30
0.0
 11
179.5401440665
 21
89.4160889333
 31
0.0
  0
LINE
  5
299
330
1F
100
AcDbEntity
  8
0
  6
Continuous
 62
     7
370
    15
100
AcDbLine
 10
151.8710663068
 20
100.9956320164
 30
0.0
 11
151.8710663068
 21
81.7904643754
 31
0.0
  0
LINE
  5
29A
330
1F
100
AcDbEntity
  8
0
  6
Continuous
 62
     7
370
    15
100
AcDbLine
 10
179.5401440665
 20
70.2109212924
 30
0.0
 11
151.8710663068
 21
81.7904643754
 31
0.0
  0
LINE
  5
29B
330
1F
100
AcDbEntity
  8
0
  6
Continuous
 62
     7
370
    15
100
AcDbLine
 10
185.3786396605
 20
95.1094962651
 30
0.0
 11
185.1863970084
 21
95.1899500516
 31
0.0
  0
SPLINE
  5
29C
330
1F
100
AcDbEntity
  8
0
  6
Continuous
 62
     7
370
    15
100
AcDbSpline
210
0.0
220
0.0
230
1.0
 70
     8
 71
     3
 72
    22
 73
    18
 74
     0
 42
0.00000001
 43
0.00000001
 40
0.0
 40
0.0
 40
0.0
 40
0.0
 40
0.0000023323432667
 40
0.0253283682627704
 40
0.0786386113543853
 40
0.1855188376495611
 40
0.2931299561404349
 40
0.4016777144359943
 40
0.4562732065440367
 40
0.5061861653530352
 40
0.5899010011916169
 40
0.6576987747905375
 40
0.7260520628738507
 40
0.7932410546733503
 40
0.8611549437097717
 40
0.9301806094473147
 40
1.0
 40
1.0
 40
1.0
 40
1.0
 10
184.5129518394759
 20
62.46145305473052
 30
0.0
 10
184.5129456460793
 20
62.46145619556764
 30
0.0
 10
184.4456876941265
 20
62.49556450215337
 30
0.0
 10
184.2375224615379
 20
62.60272665892359
 30
0.0
 10
183.7517545992973
 20
62.86562171067542
 30
0.0
 10
183.0693350128593
 20
63.28020638401463
 30
0.0
 10
182.2898888401601
 20
63.85507211210488
 30
0.0
 10
181.6874190435776
 20
64.41558312681853
 30
0.0
 10
181.2534890894366
 20
64.91030753905967
 30
0.0
 10
180.8955310197976
 20
65.37898219169357
 30
0.0
 10
180.5503141263809
 20
65.92487157771052
 30
0.0
 10
180.2267572106819
 20
66.57451533045726
 30
0.0
 10
179.9760838458419
 20
67.21905610422039
 30
0.0
 10
179.7775876835649
 20
67.90517995011928
 30
0.0
 10
179.6357756145479
 20
68.63193918837639
 30
0.0
 10
179.5489337911476
 20
69.40102225967347
 30
0.0
 10
179.5430851196276
 20
69.93992804111807
 30
0.0
 10
179.5401440665431
 20
70.21092129238032
 30
0.0
  0
SPLINE
  5
29D
330
1F
100
AcDbEntity
  8
0
  6
Continuous
 62
     7
370
    15
100
AcDbSpline
210
0.0
220
0.0
230
1.0
 70
     8
 71
     3
 72
    12
 73
     8
 74
     0
 42
0.00000001
 43
0.00000001
 40
0.0
 40
0.0
 40
0.0
 40
0.0
 40
0.3027795701734224
 40
0.5331146422179527
 40
0.7234690336527926
 40
0.9147985715066834
 40
0.9999999999999999
 40
0.9999999999999999
 40
0.9999999999999999
 40
0.9999999999999999
 10
185.1863970083809
 20
63.25089845352508
 30
0.0
 10
185.1753399212779
 20
63.10093838628745
 30
0.0
 10
185.1558713189823
 20
62.83689841969867
 30
0.0
 10
185.0124954800872
 20
62.56814327199067
 30
0.0
 10
184.8323275000992
 20
62.43078734163012
 30
0.0
 10
184.6559159813781
 20
62.41139593558878
 30
0.0
 10
184.5466252104184
 20
62.44966274200772
 30
0.0
 10
184.5129518394759
 20
62.46145305473051
 30
0.0
  0
SPLINE
  5
29E
330
1F
100
AcDbEntity
  8
0
  6
Continuous
 62
     7
370
    15
100
AcDbSpline
210
0.0
220
0.0
230
1.0
 70
     8
 71
     3
 72
    22
 73
    18
 74
     0
 42
0.00000001
 43
0.00000001
 40
0.0
 40
0.0
 40
0.0
 40
0.0
 40
0.0337682194454731
 40
0.1015953990337782
 40
0.1700753938962411
 40
0.2392097746914974
 40
0.2739655401503273
 40
0.3184885769788217
 40
0.4081203565469544
 40
0.4984257423335227
 40
0.5437328518948937
 40
0.6288744674855518
 40
0.7142667202439523
 40
0.8567818212827657
 40
0.9282967723525505
 40
0.9999976676264111
 40
1.0
 40
1.0
 40
1.0
 40
1.0
 10
151.8710663068401
 20
81.79046437544798
 30
0.0
 10
151.871238297053
 20
81.65904578568532
 30
0.0
 10
151.8717557485089
 20
81.26365851663039
 30
0.0
 10
151.9079545202591
 20
80.6198975623329
 30
0.0
 10
152.0027630845026
 20
79.87639132650045
 30
0.0
 10
152.1251686405861
 20
79.28631876820592
 30
0.0
 10
152.2564358382461
 20
78.80255856308156
 30
0.0
 10
152.4275442479135
 20
78.27355323824817
 30
0.0
 10
152.7012606668175
 20
77.62046913541664
 30
0.0
 10
153.0309090666637
 20
77.0350601338693
 30
0.0
 10
153.3891923301821
 20
76.51333827319999
 30
0.0
 10
153.770170746839
 20
76.05084772207697
 30
0.0
 10
154.3701085213387
 20
75.46431225104033
 30
0.0
 10
154.9920266714673
 20
74.9976366831238
 30
0.0
 10
155.6121872356666
 20
74.61495762542701
 30
0.0
 10
155.9301424490432
 20
74.44026889604453
 30
0.0
 10
156.0906414685957
 20
74.35622546115364
 30
0.0
 10
156.0906466893324
 20
74.3562227273759
 30
0.0
  0
LINE
  5
29F
330
1F
100
AcDbEntity
  8
0
  6
Continuous
 62
     7
370
    15
100
AcDbLine
 10
156.0906466893
 20
74.3562227274
 30
0.0
 11
184.5129518395
 21
62.4614530547
 31
0.0
  0
LINE
  5
2A0
330
1F
100
AcDbEntity
  8
0
  6
Continuous
 62
     7
370
    15
100
AcDbLine
 10
185.3786396605
 20
65.1383606784
 30
0.0
 11
185.1863970084
 21
65.2188144648
 31
0.0
  0
SPLINE
  5
2A1
330
1F
100
AcDbEntity
  8
0
  6
Continuous
 62
     7
370
    15
100
AcDbSpline
210
0.0
220
0.0
230
1.0
 70
     8
 71
     3
 72
     9
 73
     5
 74
     0
 42
0.00000001
 43
0.00000001
 40
0.0
 40
0.0
 40
0.0
 40
0.0
 40
0.2766895487655036
 40
1.0
 40
1.0
 40
1.0
 40
1.0
 10
184.7048100400078
 20
62.36550310859035
 30
0.0
 10
184.6870721470994
 20
62.37426957918137
 30
0.0
 10
184.62296458327
 20
62.40595299704133
 30
0.0
 10
184.559126553555
 20
62.4381584871487
 30
0.0
 10
184.5129518394759
 20
62.46145305473051
 30
0.0
  0
SPLINE
  5
2A2
330
1F
100
AcDbEntity
  8
0
  6
Continuous
 62
     7
370
    15
100
AcDbSpline
210
0.0
220
0.0
230
1.0
 70
     8
 71
     3
 72
    24
 73
    20
 74
     0
 42
0.00000001
 43
0.00000001
 40
0.0
 40
0.0
 40
0.0
 40
0.0
 40
0.0386069976719778
 40
0.1172712404307223
 40
0.1983049813279949
 40
0.2461964688921864
 40
0.3040721067653037
 40
0.3447146852559247
 40
0.4236260030702154
 40
0.4977440373300087
 40
0.5337047848665439
 40
0.6277250813414286
 40
0.67587234254473
 40
0.7243856665876789
 40
0.7565404707990268
 40
0.8207249761423667
 40
0.8844821172912097
 40
0.9163386088900023
 40
1.0
 40
1.0
 40
1.0
 40
1.0
 10
185.3786396604916
 20
63.14875765931991
 30
0.0
 10
185.3784446768698
 20
63.1292302307868
 30
0.0
 10
185.3778524015684
 20
63.06991440970286
 30
0.0
 10
185.3708683896588
 20
62.97235328601916
 30
0.0
 10
185.3564816872019
 20
62.87441865510102
 30
0.0
 10
185.3379171599821
 20
62.79030803204759
 30
0.0
 10
185.3197508715401
 20
62.72722769374073
 30
0.0
 10
185.293570722292
 20
62.65454291797084
 30
0.0
 10
185.2593882619002
 20
62.58059807562189
 30
0.0
 10
185.2189204501824
 20
62.51658224915127
 30
0.0
 10
185.169754484989
 20
62.45492446958141
 30
0.0
 10
185.1210923255403
 20
62.40925486211246
 30
0.0
 10
185.0628580504951
 20
62.37196404049812
 30
0.0
 10
185.0208069273
 20
62.352460804956
 30
0.0
 10
184.9712411983399
 20
62.33627027016148
 30
0.0
 10
184.913606117269
 20
62.32615132028417
 30
0.0
 10
184.8531288687701
 20
62.32724834209255
 30
0.0
 10
184.7837027806213
 20
62.33724879380546
 30
0.0
 10
184.7379474056667
 20
62.35363543162556
 30
0.0
 10
184.7048100400078
 20
62.36550310859035
 30
0.0
  0
SPLINE
  5
2A3
330
1F
100
AcDbEntity
  8
0
  6
Continuous
 62
     7
370
    15
100
AcDbSpline
210
0.0
220
0.0
230
1.0
 70
     8
 71
     3
 72
     9
 73
     5
 74
     0
 42
0.00000001
 43
0.00000001
 40
0.0
 40
0.0
 40
0.0
 40
0.0
 40
0.7233104512345042
 40
1.0
 40
1.0
 40
1.0
 40
1.0
 10
156.0906466893324
 20
74.3562227273759
 30
0.0
 10
156.1295669404026
 20
74.33596416148832
 30
0.0
 10
156.183375441308
 20
74.30795604152685
 30
0.0
 10
156.2373951817786
 20
74.28049439015336
 30
0.0
 10
156.2523418793938
 20
74.27289603822648
 30
0.0
  0
LINE
  5
2A4
330
1F
100
AcDbEntity
  8
0
  6
Continuous
 62
     7
370
    15
100
AcDbLine
 10
184.70481004
 20
62.3655031086
 30
0.0
 11
156.2523418794
 21
74.2728960382
 31
0.0
  0
SPLINE
  5
2A5
330
1F
100
AcDbEntity
  8
0
  6
Continuous
 62
     7
370
    15
100
AcDbSpline
210
0.0
220
0.0
230
1.0
 70
     8
 71
     3
 72
    11
 73
     7
 74
     0
 42
0.00000001
 43
0.00000001
 40
0.0
 40
0.0
 40
0.0
 40
0.0
 40
0.1244015536314427
 40
0.4824592885340238
 40
0.8422851763682817
 40
1.0
 40
1.0
 40
1.0
 40
1.0
 10
155.7352415946025
 20
112.6571767397072
 30
0.0
 10
155.7472821222635
 20
112.6820390667394
 30
0.0
 10
155.7939781983118
 20
112.7784611793345
 30
0.0
 10
155.9377182397323
 20
112.8643184959203
 30
0.0
 10
156.1103230025876
 20
112.8862203792739
 30
0.0
 10
156.2191715002658
 20
112.8477591244916
 30
0.0
 10
156.2523418793945
 20
112.836038481303
 30
0.0
  0
ARC
  5
2A6
330
1F
100
AcDbEntity
  8
0
  6
Continuous
 62
     7
370
    15
100
AcDbCircle
 10
181.3374095393
 20
70.0225783271
 30
0.0
 40
0.5607107399617394
100
AcDbArc
 50
256.7528287152
 51
294.6795157966
  0
LINE
  5
2A7
330
1F
100
AcDbEntity
  8
0
  6
Continuous
 62
     7
370
    15
100
AcDbLine
 10
181.2089213642
 20
69.9165470218
 30
0.0
 11
181.2089213642
 21
69.4767877787
 31
0.0
  0
LWPOLYLINE
  5
2A8
330
1F
100
AcDbEntity
  8
0
  6
Continuous
 62
     7
370
    15
100
AcDbPolyline
 90
        8
 70
   128
 43
0.0
 10
181.0085745287
 20
68.9752860873
 10
180.9507615433
 20
69.0111478933
 10
180.8714970508
 20
69.1296529479
 10
180.8436525837
 20
69.2971420926
 10
180.8714970508
 20
69.4879371247
 10
180.9507615433
 20
69.6727867546
 10
181.0692938128
 20
69.8233511976
 10
181.2089213642
 20
69.9165470218
  0
LINE
  5
2A9
330
1F
100
AcDbEntity
  8
0
  6
Continuous
 62
     7
370
    15
100
AcDbLine
 10
181.2089213642
 20
69.4767877787
 30
0.0
 11
181.2089213642
 21
69.4621621078
 31
0.0
  0
LINE
  5
2AA
330
1F
100
AcDbEntity
  8
0
  6
Continuous
 62
     7
370
    15
100
AcDbLine
 10
200.3827410022
 20
106.2540585983
 30
0.0
 11
185.3808513732
 21
99.749270495
 31
0.0
  0
ELLIPSE
  5
2AB
330
1F
100
AcDbEntity
  8
0
  6
Continuous
 62
     7
370
    15
100
AcDbEllipse
 10
184.6733135791
 20
100.0442690735
 30
0.0
 11
-0.3855796504558669
 21
0.9227309280839081
 31
0.0
210
0.0
220
0.0
230
1.0
 40
0.6429216377
 41
4.136047818571567
 42
5.705626170195266
  0
LINE
  5
2AC
330
1F
100
AcDbEntity
  8
0
  6
Continuous
 62
     7
370
    15
100
AcDbLine
 10
184.6741753424
 20
100.9526782525
 30
0.0
 11
199.6760649714
 21
107.4574663557
 31
0.0
  0
ELLIPSE
  5
2AD
330
1F
100
AcDbEntity
  8
0
  6
Continuous
 62
     7
370
    15
100
AcDbEllipse
 10
199.6752032081
 20
106.5490571768
 30
0.0
 11
-0.3855796504558385
 21
0.9227309280839223
 31
0.0
210
0.0
220
0.0
230
0.9999999999999998
 40
0.6429216377
 41
4.13604781857161
 42
5.705626170195269
  0
LINE
  5
2AE
330
1F
100
AcDbEntity
  8
0
  6
Continuous
 62
     7
370
    15
100
AcDbLine
 10
200.3827410022
 20
106.2540585983
 30
0.0
 11
200.3827410022
 21
68.2152655831
 31
0.0
  0
LINE
  5
2AF
330
1F
100
AcDbEntity
  8
0
  6
Continuous
 62
     7
370
    15
100
AcDbLine
 10
185.3808513732
 20
63.0108174739
 30
0.0
 11
200.3827410022
 21
68.2152655831
 31
0.0
  0
LINE
  5
2B0
330
1F
100
AcDbEntity
  8
0
  6
Continuous
 62
     7
370
    15
100
AcDbLine
 10
185.3808513732
 20
99.749270495
 30
0.0
 11
185.3808513732
 21
63.0108174739
 31
0.0
  0
LINE
  5
2B1
330
1F
100
AcDbEntity
  8
0
  6
Continuous
 62
     7
370
    15
100
AcDbLine
 10
170.2724649767
 20
119.7629091281
 30
0.0
 11
156.282976577
 21
112.8344298648
 31
0.0
  0
LINE
  5
2B2
330
1F
100
AcDbEntity
  8
0
  6
Continuous
 62
     7
370
    15
100
AcDbLine
 10
170.2724649767
 20
119.7629091281
 30
0.0
 11
199.6760649714
 21
107.4574663557
 31
0.0
  0
LINE
  5
2B3
330
1F
100
AcDbEntity
  8
0
  6
Continuous
 62
     7
370
    15
100
AcDbLine
 10
156.282976577
 20
112.8344298648
 30
0.0
 11
184.6741753424
 21
100.9526782525
 31
0.0
  0
ELLIPSE
  5
2B4
330
1F
100
AcDbEntity
  8
0
  6
Continuous
 62
     7
370
    15
100
AcDbEllipse
 10
156.2838383403
 20
111.9252993879
 30
0.0
 11
-0.3870025324685855
 21
0.9233440678917191
 31
0.0
210
0.0
220
0.0
230
1.0
 40
0.641490496
 41
5.705661767655886
 42
7.078963966696058
  0
ELLIPSE
  5
2B5
330
1F
100
AcDbEntity
  8
0
  6
Continuous
 62
     7
370
    15
100
AcDbEllipse
 10
184.6733135791
 20
63.3080297701
 30
0.0
 11
-0.3870025324685855
 21
0.9233440678917049
 31
0.0
210
0.0
220
0.0
230
1.0
 40
0.641490496
 41
3.101171974913117
 42
4.133647465689802
  0
ELLIPSE
  5
2B6
330
1F
100
AcDbEntity
  8
0
  6
Continuous
 62
     7
370
    15
100
AcDbEllipse
 10
199.6752032081
 20
68.5124778792
 30
0.0
 11
-0.3870025324685855
 21
0.9233440678917191
 31
0.0
210
0.0
220
0.0
230
1.0
 40
0.641490496
 41
3.101171974913176
 42
4.133647465689794
  0
ELLIPSE
  5
2B7
330
1F
100
AcDbEntity
  8
0
  6
Continuous
 62
     7
370
    15
100
AcDbEllipse
 10
170.2733267399
 20
118.8537786512
 30
0.0
 11
-0.3870025324686139
 21
0.9233440678917191
 31
0.0
210
0.0
220
0.0
230
0.9999999999999998
 40
0.641490496
 41
5.705661767655891
 42
6.323605985856224
  0
SPLINE
  5
2B8
330
1F
100
AcDbEntity
  8
0
  6
Continuous
 62
     7
370
    15
100
AcDbSpline
210
0.0
220
0.0
230
1.0
 70
     8
 71
     3
 72
    17
 73
    13
 74
     0
 42
0.00000001
 43
0.00000001
 40
0.0
 40
0.0
 40
0.0
 40
0.0
 40
0.0563770877074627
 40
0.1191193342379708
 40
0.2968078907321708
 40
0.3868884482557567
 40
0.4782569808611418
 40
0.5398958990943034
 40
0.6621886244361793
 40
0.7812441571119646
 40
0.839878855880427
 40
0.9999999999999999
 40
0.9999999999999999
 40
0.9999999999999999
 40
0.9999999999999999
 10
155.5678665147244
 20
112.4211241838148
 30
0.0
 10
155.57412994685
 20
112.4314342043794
 30
0.0
 10
155.5873639732104
 20
112.4532182807759
 30
0.0
 10
155.6258313442281
 20
112.5002987811709
 30
0.0
 10
155.6732105339341
 20
112.5462108779534
 30
0.0
 10
155.7313045699622
 20
112.5839761105711
 30
0.0
 10
155.7733034849352
 20
112.6039307631024
 30
0.0
 10
155.8232274325492
 20
112.6206689005659
 30
0.0
 10
155.8811111013025
 20
112.6311505514591
 30
0.0
 10
155.941400582753
 20
112.6302842585651
 30
0.0
 10
156.0108792071865
 20
112.6205920781946
 30
0.0
 10
156.0569353240537
 20
112.6041563489748
 30
0.0
 10
156.0906466893326
 20
112.5921260062312
 30
0.0
  0
ARC
  5
2B9
330
1F
100
AcDbEntity
  8
0
  6
Continuous
 62
     7
370
    15
100
AcDbCircle
 10
151.9528579578
 20
101.368921105
 30
0.0
 40
0.3821447603605438
100
AcDbArc
 50
191.3497716304
 51
257.6411888332
  0
ARC
  5
2BA
330
1F
100
AcDbEntity
  8
0
  6
Continuous
 62
     7
370
    15
100
AcDbCircle
 10
151.9537944638
 20
82.165253708
 30
0.0
 40
0.3838111407077315
100
AcDbArc
 50
191.85741031
 51
257.5525602922
  0
INSERT
  5
2C1
330
1F
100
AcDbEntity
  8
NOTES
100
AcDbBlockReference
  2
SW_NOTE_2
 10
158.7673595574
 20
51.8563789369
 30
0.0
  0
ENDSEC
  0
SECTION
  2
OBJECTS
  0
DICTIONARY
  5
C
330
0
100
AcDbDictionary
281
     1
  3
ACAD_GROUP
350
D
  3
ACAD_LAYOUT
350
1A
  3
ACAD_MLEADERSTYLE
350
2C5
  3
ACAD_MLINESTYLE
350
17
  3
ACAD_PLOTSETTINGS
350
19
  3
ACAD_PLOTSTYLENAME
350
E
  3
ACAD_SCALELIST
350
3B
  3
ACAD_TABLESTYLE
350
2C4
  3
ACAD_VISUALSTYLE
350
2A
  3
AcDbVariableDictionary
350
2C2
  0
DICTIONARY
  5
D
102
{ACAD_REACTORS
330
C
102
}
330
C
100
AcDbDictionary
281
     1
  0
DICTIONARY
  5
1A
102
{ACAD_REACTORS
330
C
102
}
330
C
100
AcDbDictionary
281
     1
  3
Layout1
350
1E
  3
Layout2
350
26
  3
Model
350
22
  0
DICTIONARY
  5
2C5
102
{ACAD_REACTORS
330
C
102
}
330
C
100
AcDbDictionary
281
     1
  0
DICTIONARY
  5
17
102
{ACAD_REACTORS
330
C
102
}
330
C
100
AcDbDictionary
281
     1
  3
Standard
350
18
  0
DICTIONARY
  5
19
102
{ACAD_REACTORS
330
C
102
}
330
C
100
AcDbDictionary
281
     1
  0
ACDBDICTIONARYWDFLT
  5
E
102
{ACAD_REACTORS
330
C
102
}
330
C
100
AcDbDictionary
281
     1
  3
Normal
350
F
100
AcDbDictionaryWithDefault
340
F
  0
DICTIONARY
  5
3B
102
{ACAD_REACTORS
330
C
102
}
330
C
100
AcDbDictionary
281
     1
  3
A0
350
3C
  3
A1
350
3D
  3
A2
350
3E
  3
A3
350
3F
  3
A4
350
40
  3
A5
350
41
  3
A6
350
42
  3
A7
350
43
  3
A8
350
44
  3
A9
350
45
  3
B0
350
46
  3
B1
350
47
  3
B2
350
48
  3
B3
350
49
  3
B4
350
4A
  3
B5
350
4B
  3
B6
350
4C
  3
B7
350
4D
  3
B8
350
4E
  3
B9
350
4F
  3
C0
350
50
  3
C1
350
51
  3
C2
350
52
  3
C3
350
53
  3
C4
350
54
  3
C5
350
55
  3
C6
350
56
  3
C7
350
57
  3
C8
350
58
  3
C9
350
59
  3
D0
350
5A
  3
D1
350
5B
  3
D2
350
5C
  0
DICTIONARY
  5
2C4
102
{ACAD_REACTORS
330
C
102
}
330
C
100
AcDbDictionary
281
     1
  0
DICTIONARY
  5
2A
102
{ACAD_REACTORS
330
C
102
}
330
C
100
AcDbDictionary
281
     1
  3
2dWireframe
350
2F
  3
3D Hidden
350
31
  3
3dWireframe
350
30
  3
Basic
350
32
  3
Brighten
350
36
  3
ColorChange
350
3A
  3
Conceptual
350
34
  3
Dim
350
35
  3
Facepattern
350
39
  3
Flat
350
2B
  3
FlatWithEdges
350
2C
  3
Gouraud
350
2D
  3
GouraudWithEdges
350
2E
  3
Linepattern
350
38
  3
Realistic
350
33
  3
Thicken
350
37
  0
DICTIONARY
  5
2C2
102
{ACAD_REACTORS
330
C
102
}
330
C
100
AcDbDictionary
281
     1
  3
CANNOSCALE
350
2C3
  3
PSOLHEIGHT
350
2C7
  3
PSOLWIDTH
350
2C6
  0
LAYOUT
  5
1E
102
{ACAD_REACTORS
330
1A
102
}
330
1A
100
AcDbPlotSettings
  1

  2
none_device
  4

  6

 40
0.0
 41
0.0
 42
0.0
 43
0.0
 44
0.0
 45
0.0
 46
0.0
 47
0.0
 48
0.0
 49
0.0
140
0.0
141
0.0
142
1.0
143
1.0
 70
   688
 72
     0
 73
     0
 74
     5
  7

 75
    16
147
1.0
148
0.0
149
0.0
100
AcDbLayout
  1
Layout1
 70
     1
 71
     1
 10
0.0
 20
0.0
 11
420.0
 21
297.0
 12
0.0
 22
0.0
 32
0.0
 14
1.0000000000E+20
 24
1.0000000000E+20
 34
1.0000000000E+20
 15
-1.0000000000E+20
 25
-1.0000000000E+20
 35
-1.0000000000E+20
146
0.0
 13
0.0
 23
0.0
 33
0.0
 16
1.0
 26
0.0
 36
0.0
 17
0.0
 27
1.0
 37
0.0
 76
     0
330
1B
  0
LAYOUT
  5
26
102
{ACAD_REACTORS
330
1A
102
}
330
1A
100
AcDbPlotSettings
  1

  2
none_device
  4

  6

 40
0.0
 41
0.0
 42
0.0
 43
0.0
 44
0.0
 45
0.0
 46
0.0
 47
0.0
 48
0.0
 49
0.0
140
0.0
141
0.0
142
1.0
143
1.0
 70
   688
 72
     0
 73
     0
 74
     5
  7

 75
    16
147
1.0
148
0.0
149
0.0
100
AcDbLayout
  1
Layout2
 70
     1
 71
     2
 10
0.0
 20
0.0
 11
0.0
 21
0.0
 12
0.0
 22
0.0
 32
0.0
 14
0.0
 24
0.0
 34
0.0
 15
0.0
 25
0.0
 35
0.0
146
0.0
 13
0.0
 23
0.0
 33
0.0
 16
1.0
 26
0.0
 36
0.0
 17
0.0
 27
1.0
 37
0.0
 76
     0
330
23
  0
LAYOUT
  5
22
102
{ACAD_REACTORS
330
1A
102
}
330
1A
100
AcDbPlotSettings
  1

  2
none_device
  4

  6

 40
0.0
 41
0.0
 42
0.0
 43
0.0
 44
0.0
 45
0.0
 46
0.0
 47
0.0
 48
0.0
 49
0.0
140
0.0
141
0.0
142
1.0
143
1.0
 70
  1712
 72
     0
 73
     0
 74
     0
  7

 75
     0
147
1.0
148
0.0
149
0.0
100
AcDbLayout
  1
Model
 70
     1
 71
     0
 10
0.0
 20
0.0
 11
420.0
 21
297.0
 12
0.0
 22
0.0
 32
0.0
 14
0.0
 24
0.0
 34
0.0
 15
420.0
 25
297.0
 35
0.0
146
0.0
 13
0.0
 23
0.0
 33
0.0
 16
1.0
 26
0.0
 36
0.0
 17
0.0
 27
1.0
 37
0.0
 76
     0
330
1F
331
29
  0
MLINESTYLE
  5
18
102
{ACAD_REACTORS
330
17
102
}
330
17
100
AcDbMlineStyle
  2
Standard
 70
     0
  3

 62
   256
 51
90.0
 52
90.0
 71
     2
 49
0.5
 62
   256
  6
BYLAYER
 49
-0.5
 62
   256
  6
BYLAYER
  0
ACDBPLACEHOLDER
  5
F
102
{ACAD_REACTORS
330
E
102
}
330
E
  0
SCALE
  5
3C
102
{ACAD_REACTORS
330
3B
102
}
330
3B
100
AcDbScale
 70
     0
300
1:1
140
1.0
141
1.0
290
     1
  0
SCALE
  5
3D
102
{ACAD_REACTORS
330
3B
102
}
330
3B
100
AcDbScale
 70
     0
300
1:2
140
1.0
141
2.0
290
     0
  0
SCALE
  5
3E
102
{ACAD_REACTORS
330
3B
102
}
330
3B
100
AcDbScale
 70
     0
300
1:4
140
1.0
141
4.0
290
     0
  0
SCALE
  5
3F
102
{ACAD_REACTORS
330
3B
102
}
330
3B
100
AcDbScale
 70
     0
300
1:5
140
1.0
141
5.0
290
     0
  0
SCALE
  5
40
102
{ACAD_REACTORS
330
3B
102
}
330
3B
100
AcDbScale
 70
     0
300
1:8
140
1.0
141
8.0
290
     0
  0
SCALE
  5
41
102
{ACAD_REACTORS
330
3B
102
}
330
3B
100
AcDbScale
 70
     0
300
1:10
140
1.0
141
10.0
290
     0
  0
SCALE
  5
42
102
{ACAD_REACTORS
330
3B
102
}
330
3B
100
AcDbScale
 70
     0
300
1:16
140
1.0
141
16.0
290
     0
  0
SCALE
  5
43
102
{ACAD_REACTORS
330
3B
102
}
330
3B
100
AcDbScale
 70
     0
300
1:20
140
1.0
141
20.0
290
     0
  0
SCALE
  5
44
102
{ACAD_REACTORS
330
3B
102
}
330
3B
100
AcDbScale
 70
     0
300
1:30
140
1.0
141
30.0
290
     0
  0
SCALE
  5
45
102
{ACAD_REACTORS
330
3B
102
}
330
3B
100
AcDbScale
 70
     0
300
1:40
140
1.0
141
40.0
290
     0
  0
SCALE
  5
46
102
{ACAD_REACTORS
330
3B
102
}
330
3B
100
AcDbScale
 70
     0
300
1:50
140
1.0
141
50.0
290
     0
  0
SCALE
  5
47
102
{ACAD_REACTORS
330
3B
102
}
330
3B
100
AcDbScale
 70
     0
300
1:100
140
1.0
141
100.0
290
     0
  0
SCALE
  5
48
102
{ACAD_REACTORS
330
3B
102
}
330
3B
100
AcDbScale
 70
     0
300
2:1
140
2.0
141
1.0
290
     0
  0
SCALE
  5
49
102
{ACAD_REACTORS
330
3B
102
}
330
3B
100
AcDbScale
 70
     0
300
4:1
140
4.0
141
1.0
290
     0
  0
SCALE
  5
4A
102
{ACAD_REACTORS
330
3B
102
}
330
3B
100
AcDbScale
 70
     0
300
8:1
140
8.0
141
1.0
290
     0
  0
SCALE
  5
4B
102
{ACAD_REACTORS
330
3B
102
}
330
3B
100
AcDbScale
 70
     0
300
10:1
140
10.0
141
1.0
290
     0
  0
SCALE
  5
4C
102
{ACAD_REACTORS
330
3B
102
}
330
3B
100
AcDbScale
 70
     0
300
100:1
140
100.0
141
1.0
290
     0
  0
SCALE
  5
4D
102
{ACAD_REACTORS
330
3B
102
}
330
3B
100
AcDbScale
 70
     0
300
1/128" = 1'-0"
140
0.0078125
141
12.0
290
     0
  0
SCALE
  5
4E
102
{ACAD_REACTORS
330
3B
102
}
330
3B
100
AcDbScale
 70
     0
300
1/64" = 1'-0"
140
0.015625
141
12.0
290
     0
  0
SCALE
  5
4F
102
{ACAD_REACTORS
330
3B
102
}
330
3B
100
AcDbScale
 70
     0
300
1/32" = 1'-0"
140
0.03125
141
12.0
290
     0
  0
SCALE
  5
50
102
{ACAD_REACTORS
330
3B
102
}
330
3B
100
AcDbScale
 70
     0
300
1/16" = 1'-0"
140
0.0625
141
12.0
290
     0
  0
SCALE
  5
51
102
{ACAD_REACTORS
330
3B
102
}
330
3B
100
AcDbScale
 70
     0
300
3/32" = 1'-0"
140
0.09375
141
12.0
290
     0
  0
SCALE
  5
52
102
{ACAD_REACTORS
330
3B
102
}
330
3B
100
AcDbScale
 70
     0
300
1/8" = 1'-0"
140
0.125
141
12.0
290
     0
  0
SCALE
  5
53
102
{ACAD_REACTORS
330
3B
102
}
330
3B
100
AcDbScale
 70
     0
300
3/16" = 1'-0"
140
0.1875
141
12.0
290
     0
  0
SCALE
  5
54
102
{ACAD_REACTORS
330
3B
102
}
330
3B
100
AcDbScale
 70
     0
300
1/4" = 1'-0"
140
0.25
141
12.0
290
     0
  0
SCALE
  5
55
102
{ACAD_REACTORS
330
3B
102
}
330
3B
100
AcDbScale
 70
     0
300
3/8" = 1'-0"
140
0.375
141
12.0
290
     0
  0
SCALE
  5
56
102
{ACAD_REACTORS
330
3B
102
}
330
3B
100
AcDbScale
 70
     0
300
1/2" = 1'-0"
140
0.5
141
12.0
290
     0
  0
SCALE
  5
57
102
{ACAD_REACTORS
330
3B
102
}
330
3B
100
AcDbScale
 70
     0
300
3/4" = 1'-0"
140
0.75
141
12.0
290
     0
  0
SCALE
  5
58
102
{ACAD_REACTORS
330
3B
102
}
330
3B
100
AcDbScale
 70
     0
300
1" = 1'-0"
140
1.0
141
12.0
290
     0
  0
SCALE
  5
59
102
{ACAD_REACTORS
330
3B
102
}
330
3B
100
AcDbScale
 70
     0
300
1-1/2" = 1'-0"
140
1.5
141
12.0
290
     0
  0
SCALE
  5
5A
102
{ACAD_REACTORS
330
3B
102
}
330
3B
100
AcDbScale
 70
     0
300
3" = 1'-0"
140
3.0
141
12.0
290
     0
  0
SCALE
  5
5B
102
{ACAD_REACTORS
330
3B
102
}
330
3B
100
AcDbScale
 70
     0
300
6" = 1'-0"
140
6.0
141
12.0
290
     0
  0
SCALE
  5
5C
102
{ACAD_REACTORS
330
3B
102
}
330
3B
100
AcDbScale
 70
     0
300
1'-0" = 1'-0"
140
12.0
141
12.0
290
     0
  0
VISUALSTYLE
  5
2F
102
{ACAD_REACTORS
330
2A
102
}
330
2A
100
AcDbVisualStyle
  2
2dWireframe
 70
     4
 71
     0
 72
     2
 73
     0
 90
        0
 40
-0.6
 41
-30.0
 62
     5
 63
     7
 74
     1
 91
        4
 64
     7
 65
   257
 75
     1
175
     1
 42
1.0
 92
        0
 66
   257
 43
1.0
 76
     1
 77
     6
 78
     2
 67
     7
 79
     5
170
     0
171
     0
290
     0
174
     0
 93
        1
 44
0.0
173
     0
291
     0
 45
0.0
1001
ACAD
1000
AcDbSavedByObjectVersion
1070
     0
  0
VISUALSTYLE
  5
31
102
{ACAD_REACTORS
330
2A
102
}
330
2A
100
AcDbVisualStyle
  2
3D Hidden
 70
     6
 71
     1
 72
     2
 73
     2
 90
        0
 40
-0.6
 41
-30.0
 62
     5
 63
     7
 74
     2
 91
        2
 64
     7
 65
   257
 75
     2
175
     1
 42
40.0
 92
        0
 66
   257
 43
1.0
 76
     1
 77
     6
 78
     2
 67
     7
 79
     3
170
     0
171
     0
290
     0
174
     0
 93
        1
 44
0.0
173
     0
291
     0
 45
0.0
1001
ACAD
1000
AcDbSavedByObjectVersion
1070
     0
  0
VISUALSTYLE
  5
30
102
{ACAD_REACTORS
330
2A
102
}
330
2A
100
AcDbVisualStyle
  2
3dWireframe
 70
     5
 71
     0
 72
     2
 73
     0
 90
        0
 40
-0.6
 41
-30.0
 62
     5
 63
     7
 74
     1
 91
        4
 64
     7
 65
   257
 75
     1
175
     1
 42
1.0
 92
        0
 66
   257
 43
1.0
 76
     1
 77
     6
 78
     2
 67
     7
 79
     5
170
     0
171
     0
290
     0
174
     0
 93
        1
 44
0.0
173
     0
291
     0
 45
0.0
1001
ACAD
1000
AcDbSavedByObjectVersion
1070
     0
  0
VISUALSTYLE
  5
32
102
{ACAD_REACTORS
330
2A
102
}
330
2A
100
AcDbVisualStyle
  2
Basic
 70
     7
 71
     1
 72
     0
 73
     1
 90
        0
 40
-0.6
 41
-30.0
 62
     5
 63
     7
 74
     0
 91
        4
 64
     7
 65
   257
 75
     1
175
     1
 42
1.0
 92
        8
 66
     7
 43
1.0
 76
     1
 77
     6
 78
     2
 67
     7
 79
     5
170
     0
171
     0
290
     0
174
     0
 93
        1
 44
0.0
173
     0
291
     1
 45
0.0
1001
ACAD
1000
AcDbSavedByObjectVersion
1070
     0
  0
VISUALSTYLE
  5
36
102
{ACAD_REACTORS
330
2A
102
}
330
2A
100
AcDbVisualStyle
  2
Brighten
 70
    12
 71
     2
 72
     2
 73
     0
 90
        0
 40
-0.6
 41
-30.0
 62
     5
 63
     7
 74
     1
 91
        4
 64
     7
 65
   257
 75
     1
175
     1
 42
1.0
 92
        8
 66
     7
 43
1.0
 76
     1
 77
     6
 78
     2
 67
     7
 79
     5
170
     0
171
     0
290
     0
174
     0
 93
        1
 44
50.0
173
     0
291
     1
 45
0.0
1001
ACAD
1000
AcDbSavedByObjectVersion
1070
     0
  0
VISUALSTYLE
  5
3A
102
{ACAD_REACTORS
330
2A
102
}
330
2A
100
AcDbVisualStyle
  2
ColorChange
 70
    16
 71
     2
 72
     2
 73
     3
 90
        0
 40
-0.6
 41
-30.0
 62
     5
 63
     8
 74
     1
 91
        4
 64
     7
 65
   257
 75
     1
175
     1
 42
1.0
 92
        8
 66
     8
 43
1.0
 76
     1
 77
     6
 78
     2
 67
     7
 79
     5
170
     0
171
     0
290
     0
174
     0
 93
        1
 44
0.0
173
     0
291
     1
 45
0.0
1001
ACAD
1000
AcDbSavedByObjectVersion
1070
     0
  0
VISUALSTYLE
  5
34
102
{ACAD_REACTORS
330
2A
102
}
330
2A
100
AcDbVisualStyle
  2
Conceptual
 70
     9
 71
     3
 72
     2
 73
     0
 90
        0
 40
-0.6
 41
-30.0
 62
     5
 63
     7
 74
     2
 91
        2
 64
     7
 65
   257
 75
     1
175
     1
 42
40.0
 92
        8
 66
     7
 43
1.0
 76
     1
 77
     6
 78
     2
 67
     7
 79
     3
170
     0
171
     0
290
     0
174
     0
 93
        1
 44
0.0
173
     0
291
     0
 45
0.0
1001
ACAD
1000
AcDbSavedByObjectVersion
1070
     0
  0
VISUALSTYLE
  5
35
102
{ACAD_REACTORS
330
2A
102
}
330
2A
100
AcDbVisualStyle
  2
Dim
 70
    11
 71
     2
 72
     2
 73
     0
 90
        0
 40
-0.6
 41
-30.0
 62
     5
 63
     7
 74
     1
 91
        4
 64
     7
 65
   257
 75
     1
175
     1
 42
1.0
 92
        8
 66
     7
 43
1.0
 76
     1
 77
     6
 78
     2
 67
     7
 79
     5
170
     0
171
     0
290
     0
174
     0
 93
        1
 44
-50.0
173
     0
291
     1
 45
0.0
1001
ACAD
1000
AcDbSavedByObjectVersion
1070
     0
  0
VISUALSTYLE
  5
39
102
{ACAD_REACTORS
330
2A
102
}
330
2A
100
AcDbVisualStyle
  2
Facepattern
 70
    15
 71
     2
 72
     2
 73
     0
 90
        0
 40
-0.6
 41
-30.0
 62
     5
 63
     7
 74
     1
 91
        4
 64
     7
 65
   257
 75
     1
175
     1
 42
1.0
 92
        8
 66
     7
 43
1.0
 76
     1
 77
     6
 78
     2
 67
     7
 79
     5
170
     0
171
     0
290
     0
174
     0
 93
        1
 44
0.0
173
     0
291
     1
 45
0.0
1001
ACAD
1000
AcDbSavedByObjectVersion
1070
     0
  0
VISUALSTYLE
  5
2B
102
{ACAD_REACTORS
330
2A
102
}
330
2A
100
AcDbVisualStyle
  2
Flat
 70
     0
 71
     2
 72
     1
 73
     1
 90
        2
 40
-0.6
 41
30.0
 62
     5
 63
     7
 74
     0
 91
        4
 64
     7
 65
   257
 75
     1
175
     1
 42
1.0
 92
        8
 66
     7
 43
1.0
 76
     1
 77
     6
 78
     2
 67
     7
 79
     5
170
     0
171
     0
290
     0
174
     0
 93
       13
 44
0.0
173
     0
291
     1
 45
0.0
1001
ACAD
1000
AcDbSavedByObjectVersion
1070
     0
  0
VISUALSTYLE
  5
2C
102
{ACAD_REACTORS
330
2A
102
}
330
2A
100
AcDbVisualStyle
  2
FlatWithEdges
 70
     1
 71
     2
 72
     1
 73
     1
 90
        2
 40
-0.6
 41
30.0
 62
     5
 63
     7
 74
     1
 91
        4
 64
     7
 65
   257
 75
     1
175
     1
 42
1.0
 92
        0
 66
   257
 43
1.0
 76
     1
 77
     6
 78
     2
 67
     7
 79
     5
170
     0
171
     0
290
     0
174
     0
 93
       13
 44
0.0
173
     0
291
     1
 45
0.0
1001
ACAD
1000
AcDbSavedByObjectVersion
1070
     0
  0
VISUALSTYLE
  5
2D
102
{ACAD_REACTORS
330
2A
102
}
330
2A
100
AcDbVisualStyle
  2
Gouraud
 70
     2
 71
     2
 72
     2
 73
     1
 90
        2
 40
-0.6
 41
30.0
 62
     5
 63
     7
 74
     0
 91
        4
 64
     7
 65
   257
 75
     1
175
     1
 42
1.0
 92
        0
 66
     7
 43
1.0
 76
     1
 77
     6
 78
     2
 67
     7
 79
     5
170
     0
171
     0
290
     0
174
     0
 93
       13
 44
0.0
173
     0
291
     1
 45
0.0
1001
ACAD
1000
AcDbSavedByObjectVersion
1070
     0
  0
VISUALSTYLE
  5
2E
102
{ACAD_REACTORS
330
2A
102
}
330
2A
100
AcDbVisualStyle
  2
GouraudWithEdges
 70
     3
 71
     2
 72
     2
 73
     1
 90
        2
 40
-0.6
 41
30.0
 62
     5
 63
     7
 74
     1
 91
        4
 64
     7
 65
   257
 75
     1
175
     1
 42
1.0
 92
        0
 66
   257
 43
1.0
 76
     1
 77
     6
 78
     2
 67
     7
 79
     5
170
     0
171
     0
290
     0
174
     0
 93
       13
 44
0.0
173
     0
291
     1
 45
0.0
1001
ACAD
1000
AcDbSavedByObjectVersion
1070
     0
  0
VISUALSTYLE
  5
38
102
{ACAD_REACTORS
330
2A
102
}
330
2A
100
AcDbVisualStyle
  2
Linepattern
 70
    14
 71
     2
 72
     2
 73
     0
 90
        0
 40
-0.6
 41
-30.0
 62
     5
 63
     7
 74
     1
 91
        4
 64
     7
 65
   257
 75
     7
175
     7
 42
1.0
 92
        8
 66
     7
 43
1.0
 76
     1
 77
     6
 78
     2
 67
     7
 79
     5
170
     0
171
     0
290
     0
174
     0
 93
        1
 44
0.0
173
     0
291
     1
 45
0.0
1001
ACAD
1000
AcDbSavedByObjectVersion
1070
     0
  0
VISUALSTYLE
  5
33
102
{ACAD_REACTORS
330
2A
102
}
330
2A
100
AcDbVisualStyle
  2
Realistic
 70
     8
 71
     2
 72
     2
 73
     0
 90
        0
 40
-0.6
 41
-30.0
 62
     5
 63
     7
 74
     1
 91
        0
 64
     7
 65
   257
 75
     1
175
     1
 42
1.0
 92
        8
 66
     8
 43
1.0
 76
     1
 77
     6
 78
     2
 67
     7
 79
     5
170
     0
171
     0
290
     0
174
     0
 93
       13
 44
0.0
173
     0
291
     0
 45
0.0
1001
ACAD
1000
AcDbSavedByObjectVersion
1070
     0
  0
VISUALSTYLE
  5
37
102
{ACAD_REACTORS
330
2A
102
}
330
2A
100
AcDbVisualStyle
  2
Thicken
 70
    13
 71
     2
 72
     2
 73
     0
 90
        0
 40
-0.6
 41
-30.0
 62
     5
 63
     7
 74
     1
 91
        4
 64
     7
 65
   257
 75
     1
175
     1
 42
1.0
 92
       12
 66
     7
 43
1.0
 76
     1
 77
     6
 78
     2
 67
     7
 79
     5
170
     0
171
     0
290
     0
174
     0
 93
        1
 44
0.0
173
     0
291
     1
 45
0.0
1001
ACAD
1000
AcDbSavedByObjectVersion
1070
     0
  0
DICTIONARYVAR
  5
2C3
102
{ACAD_REACTORS
330
2C2
102
}
330
2C2
100
DictionaryVariables
280
     0
  1
1:1
  0
DICTIONARYVAR
  5
2C7
102
{ACAD_REACTORS
330
2C2
102
}
330
2C2
100
DictionaryVariables
280
     0
  1
80.000000
  0
DICTIONARYVAR
  5
2C6
102
{ACAD_REACTORS
330
2C2
102
}
330
2C2
100
DictionaryVariables
280
     0
  1
5.000000
  0
ENDSEC
  0
EOF
